Поиск

(World Fusion, Ethnic Jazz, African Jazz) [CD] Abdullah Ibrahim - Mukashi: Once Upon A Time - 2013, FLAC (tracks+.cue), lossless

(World Fusion, Ethnic Jazz, African Jazz) [CD] Abdullah Ibrahim - Mukashi: Once Upon A Time - 2013, FLAC (tracks+.cue), lossless
Треклист:
♦ Abdullah Ibrahim - Mukashi: Once Upon A Time ♦
Жанр: World Fusion, Ethnic Jazz, African Jazz
Носитель: CD
Страна-производитель диска: Germany
Год издания: 2013
Издатель (лейбл): Intuition
Номер по каталогу: INT 3431 2
Аудиокодек: FLAC (*.flac)
Тип рипа: tracks+.cue
Битрейт аудио: lossless
Продолжительность: 00:56:54
Источник (релизер): jlgt
Наличие сканов в содержимом раздачи: да
Треклист:
01. Mukashi [01:01]
02. Dream Time [03:30]
03. The Stars Will Remember [04:35]
04. Serenity [03:59]
05. Mississippi [04:38]
06. Peace [04:18]
07. Matzikama [04:34]
08. Cara Mia [03:07]
09. Root [03:40]
10. Trace Elements For Monk [05:40]
11. Krotoa - Crystal Clear [03:59]
12. Krotoa - Devotion [01:54]
13. Krotoa - Endurance [01:24]
14. In the Evening [03:36]
15. Exxence [02:13]
16. The Balance [04:38]
 
Лог создания рипа
Exact Audio Copy V1.0 beta 3 from 29. August 2011
EAC extraction logfile from 11. January 2014, 14:45
Abdullah Ibrahim / Mukashi (Once Upon A Time)
Used drive : PLEXTOR DVDR PX-L890SA Adapter: 2 ID: 1
Read mode : Secure
Utilize accurate stream : Yes
Defeat audio cache : Yes
Make use of C2 pointers : No
Read offset correction : 6
Overread into Lead-In and Lead-Out : No
Fill up missing offset samples with silence : Yes
Delete leading and trailing silent blocks : No
Null samples used in CRC calculations : Yes
Used interface : Native Win32 interface for Win NT & 2000
Gap handling : Appended to previous track
Used output format : User Defined Encoder
Selected bitrate : 768 kBit/s
Quality : High
Add ID3 tag : No
Command line compressor : C:\Program Files (x86)\Exact Audio Copy\FLAC\FLAC.EXE
Additional command line options : -8 -V -T "ARTIST=%artist%" -T "TITLE=%title%" -T "ALBUM=%albumtitle%" -T "DATE=%year%" -T "TRACKNUMBER=%tracknr%" -T "TOTALTRACKS=%numtracks%" -T "GENRE=%genre%" -T "ALBUMARTIST=%albumartist%" -T "ALBUM ARTIST=%albumartist%" -T "COMMENT=EAC Secure Mode, Test & Copy, AccurateRip, FLAC -8" %source%
TOC of the extracted CD
Track | Start | Length | Start sector | End sector
---------------------------------------------------------
1 | 0:00.00 | 1:01.49 | 0 | 4623
2 | 1:01.49 | 3:30.64 | 4624 | 20437
3 | 4:32.38 | 4:35.37 | 20438 | 41099
4 | 9:08.00 | 3:59.34 | 41100 | 59058
5 | 13:07.34 | 4:38.18 | 59059 | 79926
6 | 17:45.52 | 4:18.06 | 79927 | 99282
7 | 22:03.58 | 4:34.70 | 99283 | 119902
8 | 26:38.53 | 3:07.47 | 119903 | 133974
9 | 29:46.25 | 3:40.18 | 133975 | 150492
10 | 33:26.43 | 5:40.38 | 150493 | 176030
11 | 39:07.06 | 3:59.43 | 176031 | 193998
12 | 43:06.49 | 1:54.60 | 193999 | 202608
13 | 45:01.34 | 1:24.36 | 202609 | 208944
14 | 46:25.70 | 3:36.44 | 208945 | 225188
15 | 50:02.39 | 2:13.41 | 225189 | 235204
16 | 52:16.05 | 4:38.00 | 235205 | 256054
Track 1
Filename H:\Flac Rips\01 - Mukashi.wav
Pre-gap length 0:00:02.00
Peak level 84.2 %
Extraction speed 2.3 X
Track quality 100.0 %
Test CRC B56A0D59
Copy CRC B56A0D59
Accurately ripped (confidence 3) [94F5DF2D] (AR v2)
Copy OK
Track 2
Filename H:\Flac Rips\02 - Dream Time.wav
Pre-gap length 0:00:03.00
Peak level 90.5 %
Extraction speed 3.5 X
Track quality 100.0 %
Test CRC 9D152DDF
Copy CRC 9D152DDF
Accurately ripped (confidence 3) [E08E111C] (AR v2)
Copy OK
Track 3
Filename H:\Flac Rips\03 - The Stars Will Remember.wav
Pre-gap length 0:00:03.00
Peak level 93.8 %
Extraction speed 4.0 X
Track quality 100.0 %
Test CRC 151747C0
Copy CRC 151747C0
Accurately ripped (confidence 3) [43F92E79] (AR v2)
Copy OK
Track 4
Filename H:\Flac Rips\04 - Serenity.wav
Pre-gap length 0:00:03.00
Peak level 92.2 %
Extraction speed 4.3 X
Track quality 100.0 %
Test CRC 41F12B26
Copy CRC 41F12B26
Accurately ripped (confidence 3) [2D5CA060] (AR v2)
Copy OK
Track 5
Filename H:\Flac Rips\05 - Mississippi.wav
Pre-gap length 0:00:03.00
Peak level 92.0 %
Extraction speed 3.9 X
Track quality 99.9 %
Test CRC 0124D0C8
Copy CRC 0124D0C8
Accurately ripped (confidence 3) [7F632EB9] (AR v2)
Copy OK
Track 6
Filename H:\Flac Rips\06 - Peace.wav
Pre-gap length 0:00:03.00
Peak level 86.4 %
Extraction speed 5.0 X
Track quality 100.0 %
Test CRC 439801D5
Copy CRC 439801D5
Accurately ripped (confidence 3) [CC208C4C] (AR v2)
Copy OK
Track 7
Filename H:\Flac Rips\07 - Matzikama.wav
Pre-gap length 0:00:03.00
Peak level 77.4 %
Extraction speed 5.3 X
Track quality 100.0 %
Test CRC A455A973
Copy CRC A455A973
Accurately ripped (confidence 3) [171E1FEE] (AR v2)
Copy OK
Track 8
Filename H:\Flac Rips\08 - Cara Mia.wav
Pre-gap length 0:00:03.00
Peak level 92.8 %
Extraction speed 5.2 X
Track quality 100.0 %
Test CRC E4D1365C
Copy CRC E4D1365C
Accurately ripped (confidence 3) [E555AECB] (AR v2)
Copy OK
Track 9
Filename H:\Flac Rips\09 - Root.wav
Pre-gap length 0:00:03.00
Peak level 93.5 %
Extraction speed 5.6 X
Track quality 100.0 %
Test CRC 0DE5C486
Copy CRC 0DE5C486
Accurately ripped (confidence 3) [C0E7AA1C] (AR v2)
Copy OK
Track 10
Filename H:\Flac Rips\10 - Trace Elements For Monk.wav
Pre-gap length 0:00:03.00
Peak level 94.0 %
Extraction speed 6.2 X
Track quality 100.0 %
Test CRC 29ADA0E5
Copy CRC 29ADA0E5
Accurately ripped (confidence 3) [85DA45B4] (AR v2)
Copy OK
Track 11
Filename H:\Flac Rips\11 - Krotoa - Crystal Clear.wav
Pre-gap length 0:00:03.00
Peak level 94.1 %
Extraction speed 6.1 X
Track quality 100.0 %
Test CRC 7005744A
Copy CRC 7005744A
Accurately ripped (confidence 3) [9039AFDC] (AR v2)
Copy OK
Track 12
Filename H:\Flac Rips\12 - Krotoa - Devotion.wav
Pre-gap length 0:00:03.00
Peak level 89.4 %
Extraction speed 5.5 X
Track quality 100.0 %
Test CRC 80F51DF4
Copy CRC 80F51DF4
Accurately ripped (confidence 3) [0115C0B1] (AR v2)
Copy OK
Track 13
Filename H:\Flac Rips\13 - Krotoa - Endurance.wav
Pre-gap length 0:00:03.00
Peak level 92.6 %
Extraction speed 5.1 X
Track quality 100.0 %
Test CRC 3604A19B
Copy CRC 3604A19B
Accurately ripped (confidence 3) [0AFC8844] (AR v2)
Copy OK
Track 14
Filename H:\Flac Rips\14 - In the Evening.wav
Pre-gap length 0:00:03.00
Peak level 97.2 %
Extraction speed 6.4 X
Track quality 100.0 %
Test CRC 938CE0B7
Copy CRC 938CE0B7
Accurately ripped (confidence 3) [B6B23AA5] (AR v2)
Copy OK
Track 15
Filename H:\Flac Rips\15 - Exxence.wav
Pre-gap length 0:00:03.00
Peak level 92.9 %
Extraction speed 6.0 X
Track quality 100.0 %
Test CRC 12F0BC31
Copy CRC 12F0BC31
Accurately ripped (confidence 3) [671A7C2A] (AR v2)
Copy OK
Track 16
Filename H:\Flac Rips\16 - The Balance.wav
Pre-gap length 0:00:03.00
Peak level 92.1 %
Extraction speed 7.0 X
Track quality 100.0 %
Test CRC EF1EFEB1
Copy CRC EF1EFEB1
Accurately ripped (confidence 3) [D308C351] (AR v2)
Copy OK
All tracks accurately ripped
No errors occurred
End of status report
==== Log checksum 66793BB1E7643F13A991A2736495249BDF52DF97502515D9F39F5E1C2B727A9B ====
 
Содержание индексной карты (.CUE)
REM GENRE Jazz
REM DATE 2013
REM DISCID DF0D5610
REM COMMENT "ExactAudioCopy v1.0b3"
PERFORMER "Abdullah Ibrahim"
TITLE "Mukashi (Once Upon A Time)"
FILE "01 - Mukashi.wav" WAVE
TRACK 01 AUDIO
TITLE "Mukashi"
PERFORMER "Abdullah Ibrahim"
INDEX 01 00:00:00
TRACK 02 AUDIO
TITLE "Dream Time"
PERFORMER "Abdullah Ibrahim"
INDEX 00 00:58:49
FILE "02 - Dream Time.wav" WAVE
INDEX 01 00:00:00
TRACK 03 AUDIO
TITLE "The Stars Will Remember"
PERFORMER "Abdullah Ibrahim"
INDEX 00 03:27:64
FILE "03 - The Stars Will Remember.wav" WAVE
INDEX 01 00:00:00
TRACK 04 AUDIO
TITLE "Serenity"
PERFORMER "Abdullah Ibrahim"
INDEX 00 04:32:37
FILE "04 - Serenity.wav" WAVE
INDEX 01 00:00:00
TRACK 05 AUDIO
TITLE "Mississippi"
PERFORMER "Abdullah Ibrahim"
INDEX 00 03:56:34
FILE "05 - Mississippi.wav" WAVE
INDEX 01 00:00:00
TRACK 06 AUDIO
TITLE "Peace"
PERFORMER "Abdullah Ibrahim"
INDEX 00 04:35:18
FILE "06 - Peace.wav" WAVE
INDEX 01 00:00:00
TRACK 07 AUDIO
TITLE "Matzikama"
PERFORMER "Abdullah Ibrahim"
INDEX 00 04:15:06
FILE "07 - Matzikama.wav" WAVE
INDEX 01 00:00:00
TRACK 08 AUDIO
TITLE "Cara Mia"
PERFORMER "Abdullah Ibrahim"
INDEX 00 04:31:70
FILE "08 - Cara Mia.wav" WAVE
INDEX 01 00:00:00
TRACK 09 AUDIO
TITLE "Root"
PERFORMER "Abdullah Ibrahim"
INDEX 00 03:04:47
FILE "09 - Root.wav" WAVE
INDEX 01 00:00:00
TRACK 10 AUDIO
TITLE "Trace Elements For Monk"
PERFORMER "Abdullah Ibrahim"
INDEX 00 03:37:18
FILE "10 - Trace Elements For Monk.wav" WAVE
INDEX 01 00:00:00
TRACK 11 AUDIO
TITLE "Krotoa - Crystal Clear"
PERFORMER "Abdullah Ibrahim"
INDEX 00 05:37:38
FILE "11 - Krotoa - Crystal Clear.wav" WAVE
INDEX 01 00:00:00
TRACK 12 AUDIO
TITLE "Krotoa - Devotion"
PERFORMER "Abdullah Ibrahim"
INDEX 00 03:56:43
FILE "12 - Krotoa - Devotion.wav" WAVE
INDEX 01 00:00:00
TRACK 13 AUDIO
TITLE "Krotoa - Endurance"
PERFORMER "Abdullah Ibrahim"
INDEX 00 01:51:60
FILE "13 - Krotoa - Endurance.wav" WAVE
INDEX 01 00:00:00
TRACK 14 AUDIO
TITLE "In the Evening"
PERFORMER "Abdullah Ibrahim"
INDEX 00 01:21:36
FILE "14 - In the Evening.wav" WAVE
INDEX 01 00:00:00
TRACK 15 AUDIO
TITLE "Exxence"
PERFORMER "Abdullah Ibrahim"
INDEX 00 03:33:44
FILE "15 - Exxence.wav" WAVE
INDEX 01 00:00:00
TRACK 16 AUDIO
TITLE "The Balance"
PERFORMER "Abdullah Ibrahim"
INDEX 00 02:10:41
FILE "16 - The Balance.wav" WAVE
INDEX 01 00:00:00
 
Состав
Abdullah Ibrahim - piano, flute, vocals
Cleave Guyton - saxophone, flute, clarinet
Eugen Bazijan - cello
Scott Roller - cello
14:36
649
Нет комментариев. Ваш будет первым!