Вы используете незарегистрированную версию компонента "Вкладки"!

Поиск

(World fusion, Ethio jazz) [CD] Arat Kilo - A Night in Abyssinia - 2011, FLAC (image+.cue), lossless

(World fusion, Ethio jazz) [CD] Arat Kilo - A Night in Abyssinia - 2011, FLAC (image+.cue), lossless
Треклист:
Arat Kilo / A Night in Abyssinia
Жанр: World fusion, Ethio jazz
Носитель: CD
Страна-производитель диска (релиза): France
Год издания: 2011
Издатель (лейбл): Only Music / Milan
Номер по каталогу: 3993542
Страна исполнителя (группы): Ethiopia
Аудиокодек: FLAC (*.flac)
Тип рипа: image+.cue
Битрейт аудио: lossless
Продолжительность: 01:08:09
Источник (релизер): свой диск
Наличие сканов в содержимом раздачи: нет
Треклист:
01 Aykedashem Lebe 03:57
02 Babur Part. 1 (feat. Socalled) 05:04
03 Babur Part. 2 04:13
04 Lelit 03:41
05 Get A Chew (feat. Rokia Traore) 06:39
06 Fit Le Fit 05:59
07 Dewel (feat. Mulatu Astatke) 05:55
08 Addis Polis 04:11
09 Enie Konjo Intro 01:42
10 Enie Konjo 05:26
11 Ewnetegna Feqer 04:37
12 Wanz 07:25
13 Minew Jal Intro 02:07
14 Minew Jal 07:06
 
Лог создания рипа
Exact Audio Copy V1.0 beta 4 from 7. December 2014
EAC extraction logfile from 26. January 2015, 16:24
Arat Kilo / A Night in Abyssinia
Used drive : TSSTcorpCDDVDW TS-L633A Adapter: 1 ID: 0
Read mode : Secure
Utilize accurate stream : Yes
Defeat audio cache : Yes
Make use of C2 pointers : No
Read offset correction : 6
Overread into Lead-In and Lead-Out : No
Fill up missing offset samples with silence : Yes
Delete leading and trailing silent blocks : No
Null samples used in CRC calculations : Yes
Used interface : Installed external ASPI interface
Used output format : User Defined Encoder
Selected bitrate : 896 kBit/s
Quality : High
Add ID3 tag : No
Command line compressor : C:\Program Files\Exact Audio Copy\Flac\flac.exe
Additional command line options : -V -8 %source%
TOC of the extracted CD
Track | Start | Length | Start sector | End sector
---------------------------------------------------------
1 | 0:00.00 | 3:57.64 | 0 | 17838
2 | 3:57.64 | 5:04.24 | 17839 | 40662
3 | 9:02.13 | 4:13.03 | 40663 | 59640
4 | 13:15.16 | 3:41.13 | 59641 | 76228
5 | 16:56.29 | 6:39.02 | 76229 | 106155
6 | 23:35.31 | 5:59.42 | 106156 | 133122
7 | 29:34.73 | 5:55.38 | 133123 | 159785
8 | 35:30.36 | 4:11.73 | 159786 | 178683
9 | 39:42.34 | 1:42.17 | 178684 | 186350
10 | 41:24.51 | 5:26.35 | 186351 | 210835
11 | 46:51.11 | 4:37.66 | 210836 | 231676
12 | 51:29.02 | 7:25.53 | 231677 | 265104
13 | 58:54.55 | 2:07.53 | 265105 | 274682
14 | 61:02.33 | 7:06.62 | 274683 | 306694
Range status and errors
Selected range
Filename \\KARVELIDE\Users\janek\Music\savi\Arat Kilo - A Night in Abyssinia\Arat Kilo - A Night in Abyssinia.wav
Peak level 99.9 %
Extraction speed 4.8 X
Range quality 99.9 %
Test CRC 4A7D10E5
Copy CRC 4A7D10E5
Copy OK
No errors occurred
AccurateRip summary
Track 1 accurately ripped (confidence 3) [6EDB3173] (AR v2)
Track 2 accurately ripped (confidence 3) [7C061AC5] (AR v2)
Track 3 accurately ripped (confidence 3) [5E4D93DE] (AR v2)
Track 4 accurately ripped (confidence 3) [A9ADA5D0] (AR v2)
Track 5 accurately ripped (confidence 3) [508E0846] (AR v2)
Track 6 accurately ripped (confidence 3) [AC5AE71B] (AR v2)
Track 7 accurately ripped (confidence 3) [9EC2B480] (AR v2)
Track 8 accurately ripped (confidence 3) [187FDFE4] (AR v2)
Track 9 accurately ripped (confidence 3) [5542001C] (AR v2)
Track 10 accurately ripped (confidence 3) [76D9810E] (AR v2)
Track 11 accurately ripped (confidence 3) [8350D162] (AR v2)
Track 12 accurately ripped (confidence 3) [13D35190] (AR v2)
Track 13 accurately ripped (confidence 3) [27ABC4CB] (AR v2)
Track 14 accurately ripped (confidence 3) [1462BA88] (AR v2)
All tracks accurately ripped
End of status report
==== Log checksum FE5212A848D5B0A0D9F7D5382FA542B11AF3B0B5A535223BFC3DA26FE5762826 ====
 
Содержание индексной карты (.CUE)
REM DATE 2011
REM DISCID CC0FF90E
REM COMMENT "ExactAudioCopy v1.0b4"
PERFORMER "Arat Kilo"
TITLE "A Night in Abyssinia"
FILE "Arat Kilo - A Night in Abyssinia.flac" WAVE
TRACK 01 AUDIO
TITLE "Aykedashem lebe"
PERFORMER "Arat Kilo"
INDEX 01 00:00:00
TRACK 02 AUDIO
TITLE "Babur, Part 1"
PERFORMER "Arat Kilo feat. Socalled"
INDEX 00 03:55:03
INDEX 01 03:57:64
TRACK 03 AUDIO
TITLE "Babur, Part 2"
PERFORMER "Arat Kilo"
INDEX 01 09:02:13
TRACK 04 AUDIO
TITLE "Lelit"
PERFORMER "Arat Kilo"
INDEX 00 13:12:31
INDEX 01 13:15:16
TRACK 05 AUDIO
TITLE "Get a Chew"
PERFORMER "Arat Kilo feat. Rokia Traore"
INDEX 00 16:53:44
INDEX 01 16:56:29
TRACK 06 AUDIO
TITLE "Fit le Fit"
PERFORMER "Arat Kilo"
INDEX 00 23:31:46
INDEX 01 23:35:31
TRACK 07 AUDIO
TITLE "Dewel"
PERFORMER "Arat Kilo feat. Mulatu Astatke"
INDEX 00 29:32:13
INDEX 01 29:34:73
TRACK 08 AUDIO
TITLE "Addis Polis"
PERFORMER "Arat Kilo"
INDEX 00 35:27:51
INDEX 01 35:30:36
TRACK 09 AUDIO
TITLE "Enie Konjo (intro)"
PERFORMER "Arat Kilo"
INDEX 00 39:39:49
INDEX 01 39:42:34
TRACK 10 AUDIO
TITLE "Enie Konjo"
PERFORMER "Arat Kilo"
INDEX 01 41:24:51
TRACK 11 AUDIO
TITLE "Ewnetegna Feqer"
PERFORMER "Arat Kilo"
INDEX 00 46:49:05
INDEX 01 46:51:11
TRACK 12 AUDIO
TITLE "Wanz"
PERFORMER "Arat Kilo"
INDEX 00 51:26:17
INDEX 01 51:29:02
TRACK 13 AUDIO
TITLE "Minew Jal (intro)"
PERFORMER "Arat Kilo"
INDEX 00 58:51:70
INDEX 01 58:54:55
TRACK 14 AUDIO
TITLE "Minew Jal"
PERFORMER "Arat Kilo"
INDEX 01 61:02:33
Доп. информация: https://myspace.com/aratkilozik
 
Об альбоме (сборнике)
L’Ethiopie fascine depuis longtemps les mondes de la musique. Bien sûr, on connaît le rastafarisme mystique de Marcus Garvey injectée dans les gènes du reggae jamaïcain. La musique d’Arat Kilo (Kilomètre 4, le nom d’un faubourg d’Addis-Abeba) prend une autre trajectoire, en s’aventurant sur le terrain de l’Ethio-jazz et de l’Ethio groove. Arat Kilo est fasciné par cette période très spéciale de la musique éthiopienne, au point d’en faire le cœur de leur répertoire.
Un groove venu de nulle part qui a tôt fait de réunir cinq jeunes musiciens. Ils mettent en commun leurs compétences, recherches, compositions. Un premier disque, artisanal, en 2009, permet l’ébauche d’un territoire en friche doublé d’un acte de naissance avec des concerts qui resserrent la cohésion du quintet et qui ciblent cette Ethio Jazz french style, volontairement instrumental.
Arat Kilo n’hésite pas à flirter avec le reggae et à frayer avec le dub atmosphérique afin de rendre leurs compositions plus actuelles. Ajoutez-y une prise de son et un mixage à la hauteur de leurs ambitions. Venez découvrir « Nuit en Abyssinie », et plus si affinités…
 
Состав
Fabien Girard - guitar, balafon
Michael Havard - saxophones, flute
Camille Floriot - trumpet, bugle, ney
Samuel Hirsch - bass guitar, kalimba
Arnold Turpin - drums, melodica
Any questions -> support@pro-jazz.com. По всем вопросам пишите -> support@pro-jazz.com
17:39
203
Нет комментариев. Ваш будет первым!