Поиск

(World Fusion) Dino Saluzzi, Anthony Cox, David Friedman - Rios - 1995, FLAC (image+.cue), lossless

(World Fusion) Dino Saluzzi, Anthony Cox, David Friedman - Rios - 1995, FLAC (image+.cue), lossless
Треклист:
Dino Saluzzi, Anthony Cox, David Friedman - Rios
Жанр: World Fusion
Год издания диска: 1995
Издатель (лейбл): veraBra / Intuition
Номер по каталогу: vBr 2156 2
Страна: Аргентина
Аудиокодек: FLAC (*.flac)
Тип рипа: image+.cue
Битрейт аудио: lossless
Продолжительность: 48:13
Источник (релизер): ffsf (hqshare)
Наличие сканов в содержимом раздачи: сетевые
Треклист:
01. Los Them (Friedman) - 3:25
02. Minguito (Saluzzi) - 5:14
03. Fulano de Tal... (Saluzzi) - 3:56
04. Sketch #1 (Cox) - 6:47
05. And He Loved His Brother, Till the End... (Saluzzi) - 5:29
06. Penta y Uno (Friedman) - 4:30
07. Jad (Cox) - 5:16
08. Lunch with Pancho Villa (Friedman) - 7:05
09. My One and Only Love (Wood-Mellin) - 4:04
10. Rios (Saluzzi-Cox-Friedman) - 2:23
Состав:
Dino Saluzzi - bandoneon, percussion, voice
Anthony Cox - acoustic bass, electric bass
David Friedman - marimba, vibraphone, percussion
Recorded at Principal Studios, Munster, Germany.
 
Лог создания рипа
Exact Audio Copy V0.99 prebeta 5 from 4. May 2009
EAC extraction logfile from 12. June 2010, 16:37
Dino Saluzzi / Rios
Used drive : MATSHITADVD-ROM SR-8588 Adapter: 1 ID: 1
Read mode : Secure
Utilize accurate stream : Yes
Defeat audio cache : Yes
Make use of C2 pointers : No
Read offset correction : 103
Overread into Lead-In and Lead-Out : No
Fill up missing offset samples with silence : Yes
Delete leading and trailing silent blocks : No
Null samples used in CRC calculations : Yes
Used interface : Installed external ASPI interface
Used output format : Internal WAV Routines
Sample format : 44.100 Hz; 16 Bit; Stereo
TOC of the extracted CD
Track | Start | Length | Start sector | End sector
---------------------------------------------------------
1 | 0:00.00 | 3:25.05 | 0 | 15379
2 | 3:25.05 | 5:14.07 | 15380 | 38936
3 | 8:39.12 | 3:56.65 | 38937 | 56701
4 | 12:36.02 | 6:47.68 | 56702 | 87294
5 | 19:23.70 | 5:29.57 | 87295 | 112026
6 | 24:53.52 | 4:30.20 | 112027 | 132296
7 | 29:23.72 | 5:16.28 | 132297 | 156024
8 | 34:40.25 | 7:05.00 | 156025 | 187899
9 | 41:45.25 | 4:04.40 | 187900 | 206239
10 | 45:49.65 | 2:23.42 | 206240 | 217006
Range status and errors
Selected range
Filename C:\EAC\Dino Saluzzi - Rios.wav
Peak level 100.0 %
Range quality 100.0 %
Test CRC 99143E44
Copy CRC 99143E44
Copy OK
No errors occurred
AccurateRip summary
Track 1 cannot be verified as accurate (confidence 4) [176DD69D], AccurateRip returned [C44E9C4F]
Track 2 cannot be verified as accurate (confidence 4) [350F9A9F], AccurateRip returned [AAB770BA]
Track 3 cannot be verified as accurate (confidence 4) [1B04240E], AccurateRip returned [F252AD21]
Track 4 cannot be verified as accurate (confidence 4) [54951069], AccurateRip returned [91845CB6]
Track 5 cannot be verified as accurate (confidence 4) [D951EA2D], AccurateRip returned [068163C5]
Track 6 cannot be verified as accurate (confidence 4) [D603E94E], AccurateRip returned [5CFAE1B6]
Track 7 cannot be verified as accurate (confidence 4) [70AC00B6], AccurateRip returned [A8FDE7DE]
Track 8 cannot be verified as accurate (confidence 4) [15962738], AccurateRip returned [67BA99DB]
Track 9 cannot be verified as accurate (confidence 3) [84C15B20], AccurateRip returned [D6F9BF90]
Track 10 cannot be verified as accurate (confidence 3) [4D179426], AccurateRip returned [F13BDD22]
No tracks could be verified as accurate
You may have a different pressing from the one(s) in the database
End of status report
 
Содержание индексной карты (.CUE)
REM GENRE Jazz
REM DATE 1995
REM DISCID 830B4D0A
REM COMMENT "ExactAudioCopy v0.99pb5"
PERFORMER "Dino Saluzzi, Anthony Cox, David Friedman"
TITLE "Rios"
FILE "Dino Saluzzi - Rios.wav" WAVE
TRACK 01 AUDIO
TITLE "Los Them"
PERFORMER "Dino Saluzzi, Anthony Cox, David Friedman"
INDEX 01 00:00:00
TRACK 02 AUDIO
TITLE "Minguito"
PERFORMER "Dino Saluzzi, Anthony Cox, David Friedman"
INDEX 00 03:20:37
INDEX 01 03:25:05
TRACK 03 AUDIO
TITLE "Fulano de Tal..."
PERFORMER "Dino Saluzzi, Anthony Cox, David Friedman"
INDEX 00 08:34:54
INDEX 01 08:39:12
TRACK 04 AUDIO
TITLE "Sketch #1"
PERFORMER "Dino Saluzzi, Anthony Cox, David Friedman"
INDEX 00 12:33:05
INDEX 01 12:36:02
TRACK 05 AUDIO
TITLE "And He Loved His Brother Till the End..."
PERFORMER "Dino Saluzzi, Anthony Cox, David Friedman"
INDEX 00 19:19:27
INDEX 01 19:23:70
TRACK 06 AUDIO
TITLE "Penta y Uno"
PERFORMER "Dino Saluzzi, Anthony Cox, David Friedman"
INDEX 00 24:50:62
INDEX 01 24:53:52
TRACK 07 AUDIO
TITLE "Jad"
PERFORMER "Dino Saluzzi, Anthony Cox, David Friedman"
INDEX 00 29:20:47
INDEX 01 29:23:72
TRACK 08 AUDIO
TITLE "Lunch with Pancho Villa"
PERFORMER "Dino Saluzzi, Anthony Cox, David Friedman"
INDEX 00 34:36:17
INDEX 01 34:40:25
TRACK 09 AUDIO
TITLE "My One and Only Love"
PERFORMER "Dino Saluzzi, Anthony Cox, David Friedman"
INDEX 00 41:42:62
INDEX 01 41:45:25
TRACK 10 AUDIO
TITLE "Rios"
PERFORMER "Dino Saluzzi, Anthony Cox, David Friedman"
INDEX 00 45:48:07
INDEX 01 45:49:65
 
Отчет CUETools
[CUETools log; Date: 05.08.2013 23:27:24; Version: 2.1.4]
[CTDB TOCID: Yt93pqttNY7r31gdnp4y1D5MdUs-] found.
Track | CTDB Status
1 | (2/2) Accurately ripped
2 | (2/2) Accurately ripped
3 | (2/2) Accurately ripped
4 | (2/2) Accurately ripped
5 | (2/2) Accurately ripped
6 | (2/2) Accurately ripped
7 | (2/2) Accurately ripped
8 | (2/2) Accurately ripped
9 | (2/2) Accurately ripped
10 | (1/2) Accurately ripped, or (1/2) differs in 3 samples @01:59:63
[AccurateRip ID: 001275d2-009580f1-830b4d0a] found.
Track [ CRC | V2 ] Status
01 [176dd69d|32299910] (03+00/11) Accurately ripped
02 [350f9a9f|b811efbc] (03+00/11) Accurately ripped
03 [1b04240e|6836931c] (03+00/11) Accurately ripped
04 [54951069|007d9d01] (03+00/11) Accurately ripped
05 [d951ea2d|e3ff4e26] (03+00/11) Accurately ripped
06 [d603e94e|0137e277] (03+00/11) Accurately ripped
07 [70ac00b6|ffecae8e] (03+00/11) Accurately ripped
08 [15962738|aa0fed1b] (03+00/11) Accurately ripped
09 [84c15b20|fa9f8ed6] (03+00/10) Accurately ripped
10 [4d179426|2c50a4fa] (03+00/10) Accurately ripped
Offsetted by 224:
01 [6b20c41d] (00/11) No match (V2 was not tested)
02 [a059b76a] (00/11) No match (V2 was not tested)
03 [e6c5e637] (00/11) No match (V2 was not tested)
04 [0d6efd4b] (00/11) No match (V2 was not tested)
05 [893db3d5] (00/11) No match (V2 was not tested)
06 [01d4cdbd] (00/11) No match (V2 was not tested)
07 [e15988c3] (00/11) No match (V2 was not tested)
08 [162a573c] (00/11) No match (V2 was not tested)
09 [dac48f43] (00/10) No match (V2 was not tested)
10 [8341c751] (00/10) No match (V2 was not tested)
Offsetted by 242:
01 [c44e9c4f] (06/11) Accurately ripped
02 [aab770ba] (06/11) Accurately ripped
03 [f252ad21] (06/11) Accurately ripped
04 [91845cb6] (06/11) Accurately ripped
05 [068163c5] (06/11) Accurately ripped
06 [5cfae1b6] (06/11) Accurately ripped
07 [a8fde7de] (06/11) Accurately ripped
08 [67ba99db] (06/11) Accurately ripped
09 [d6f9bf90] (05/10) Accurately ripped
10 [84db8720] (00/10) No match (V2 was not tested)
Track Peak [ CRC32 ] [W/O NULL] [ LOG ]
-- 100,0 [99143E44] [C38340A0] CRC32
01 89,3 [A698605F] [44E31B25]
02 100,0 [EA417A58] [87398036]
03 81,1 [8CA2AA54] [667A232A]
04 88,2 [49584714] [5DA9CE31]
05 93,5 [360E24D2] [51D4367C]
06 96,5 [030319E2] [5FCE42FA]
07 86,2 [7A5208CC] [85C6F2FE]
08 95,6 [B4AF0F81] [A0C155F7]
09 99,7 [952DB102] [03044173]
10 98,4 [1DF2C9C2] [0D2E23E0]
 
Review by Kurt Keefner
Because Dino Saluzzi is an Argentine who plays the bandoneon, it is inevitable to compare him to Astor Piazolla. This comparison is unfair, however, because if Saluzzi is playing tango, it is so abstracted and transformed that we may as well just call it jazz. If a better comparison is sought it would be to another international jazz musician like Renaud Garcia-Fons.
On Rios, Saluzzi plays with American bassist Anthony Cox and American vibist and arranger David Friedman, a musician who's run the gamut from Yoko Ono to Disney soundtracks. Together they play an assortment of tunes by members of the group, about half of them Saluzzi's, plus the one cover "My One and Only Love." The numbers are thoughtful but not flashy. Friedman's "Penta y Uno" is largely a deconstruction of bossa nova and tango, featuring percussion as well as vibes. Cox's "Jad" uses weird effects from the instruments and the occasional Arabic motif to build up to a subdued bop frenzy. Other tracks are more straight-ahead combinations of the primary instruments.
This is music for the patient and thoughtful listener. Competent but not destined to be a classic.
02:59
263
Нет комментариев. Ваш будет первым!