Поиск

(World Fusion, Cuban Jazz) [CD] Arturo Sandoval - Americana - 1999, APE (tracks+.cue), lossless

(World Fusion, Cuban Jazz) [CD] Arturo Sandoval - Americana - 1999, APE (tracks+.cue), lossless
Треклист:
♦ Arturo Sandoval - Americana ♦
Жанр: World Fusion, Cuban Jazz
Носитель: CD
Страна-производитель диска: Russia
Год издания: 1999
Издатель (лейбл): N-Coded Music
Аудиокодек: APE (*.ape)
Тип рипа: tracks+.cue
Битрейт аудио: lossless
Продолжительность: 00:52:07
Источник (релизер): Рип с диска.
Наличие сканов в содержимом раздачи: да
Треклист:
01. Just the Way You Are [04:21]
02. Come Back to Me [05:22]
03. Englishman in New York [04:22]
04. Let's Stay Together [04:52]
05. All Night Long [05:46]
06. Baby Come to Me [03:31]
07. Killing Me Softly With His Song [04:42]
08. If You Leave Me Now [05:44]
09. She's Out of My life [03:38]
10. We've Only Just Begun [04:24]
11. Isn't She Lovely [05:21]
 
Лог создания рипа
Exact Audio Copy V1.0 beta 3 from 29. August 2011
EAC extraction logfile from 6. December 2013, 15:27
Arturo Sandoval / Americana
Used drive : Optiarc DVD RW AD-5200A Adapter: 0 ID: 0
Read mode : Secure
Utilize accurate stream : Yes
Defeat audio cache : Yes
Make use of C2 pointers : No
Read offset correction : 48
Overread into Lead-In and Lead-Out : No
Fill up missing offset samples with silence : Yes
Delete leading and trailing silent blocks : No
Null samples used in CRC calculations : Yes
Used interface : Native Win32 interface for Win NT & 2000
Gap handling : Appended to previous track
Used output format : User Defined Encoder
Selected bitrate : 128 kBit/s
Quality : High
Add ID3 tag : No
Command line compressor : F:\Program Files\Monkey's Audio\wapet.exe
Additional command line options : %dest% -t "Genre=%genre%" -t "Artist=%artist%" -t "Title=%title%" -t "Album=%albumtitle%" -t "Year=%year%" -t "Track=%tracknr%" -t "Comment=%comment%" mac.exe %source% %dest% -c3000
TOC of the extracted CD
Track | Start | Length | Start sector | End sector
---------------------------------------------------------
1 | 0:00.00 | 4:21.50 | 0 | 19624
2 | 4:21.50 | 5:22.37 | 19625 | 43811
3 | 9:44.12 | 4:22.00 | 43812 | 63461
4 | 14:06.12 | 4:52.25 | 63462 | 85386
5 | 18:58.37 | 5:46.50 | 85387 | 111386
6 | 24:45.12 | 3:31.00 | 111387 | 127211
7 | 28:16.12 | 4:42.53 | 127212 | 148414
8 | 32:58.65 | 5:44.32 | 148415 | 174246
9 | 38:43.22 | 3:38.43 | 174247 | 190639
10 | 42:21.65 | 4:24.22 | 190640 | 210461
11 | 46:46.12 | 5:21.35 | 210462 | 234571
Track 1
Filename F:\1999.Arturo Sandoval - Americana\01. Just the Way You Are.wav
Pre-gap length 0:00:02.00
Peak level 97.7 %
Extraction speed 2.2 X
Track quality 100.0 %
Test CRC 814F4653
Copy CRC 814F4653
Track not present in AccurateRip database
Copy OK
Track 2
Filename F:\1999.Arturo Sandoval - Americana\02. Come Back to Me.wav
Pre-gap length 0:00:02.18
Peak level 98.3 %
Extraction speed 2.6 X
Track quality 100.0 %
Test CRC 529B2EBA
Copy CRC 529B2EBA
Track not present in AccurateRip database
Copy OK
Track 3
Filename F:\1999.Arturo Sandoval - Americana\03. Englishman in New York.wav
Pre-gap length 0:00:02.02
Peak level 98.6 %
Extraction speed 2.7 X
Track quality 100.0 %
Test CRC 8339859C
Copy CRC 8339859C
Track not present in AccurateRip database
Copy OK
Track 4
Filename F:\1999.Arturo Sandoval - Americana\04. Let's Stay Together.wav
Pre-gap length 0:00:02.02
Peak level 99.1 %
Extraction speed 3.1 X
Track quality 100.0 %
Test CRC 074388BA
Copy CRC 074388BA
Track not present in AccurateRip database
Copy OK
Track 5
Filename F:\1999.Arturo Sandoval - Americana\05. All Night Long.wav
Pre-gap length 0:00:02.58
Peak level 97.7 %
Extraction speed 3.3 X
Track quality 100.0 %
Test CRC 2BC272F1
Copy CRC 2BC272F1
Track not present in AccurateRip database
Copy OK
Track 6
Filename F:\1999.Arturo Sandoval - Americana\06. Baby Come to Me.wav
Pre-gap length 0:00:02.47
Peak level 97.7 %
Extraction speed 3.4 X
Track quality 100.0 %
Test CRC E212FDFA
Copy CRC E212FDFA
Track not present in AccurateRip database
Copy OK
Track 7
Filename F:\1999.Arturo Sandoval - Americana\07. Killing Me Softly With His Song.wav
Pre-gap length 0:00:01.47
Peak level 100.0 %
Extraction speed 3.5 X
Track quality 100.0 %
Test CRC 7958F8B6
Copy CRC 7958F8B6
Track not present in AccurateRip database
Copy OK
Track 8
Filename F:\1999.Arturo Sandoval - Americana\08. If You Leave Me Now.wav
Pre-gap length 0:00:02.13
Peak level 97.7 %
Extraction speed 3.7 X
Track quality 100.0 %
Test CRC 3A703D4E
Copy CRC 3A703D4E
Track not present in AccurateRip database
Copy OK
Track 9
Filename F:\1999.Arturo Sandoval - Americana\09. She's Out of My life.wav
Pre-gap length 0:00:01.52
Peak level 97.7 %
Extraction speed 3.7 X
Track quality 100.0 %
Test CRC E3252C83
Copy CRC E3252C83
Track not present in AccurateRip database
Copy OK
Track 10
Filename F:\1999.Arturo Sandoval - Americana\10. We've Only Just Begun.wav
Pre-gap length 0:00:01.53
Peak level 97.7 %
Extraction speed 3.6 X
Track quality 99.9 %
Test CRC 5189527C
Copy CRC 5189527C
Track not present in AccurateRip database
Copy OK
Track 11
Filename F:\1999.Arturo Sandoval - Americana\11. Isn't She Lovely.wav
Pre-gap length 0:00:03.10
Peak level 97.7 %
Extraction speed 4.1 X
Track quality 100.0 %
Test CRC 6A6EBA4D
Copy CRC 6A6EBA4D
Track not present in AccurateRip database
Copy OK
None of the tracks are present in the AccurateRip database
No errors occurred
End of status report
==== Log checksum 9CBA85A528D8BAA26077D8DC48B4F1B8DC518AC70F86FFC6DC32A7AA9D56CD7A ====
 
Содержание индексной карты (.CUE)
REM GENRE Jazz
REM DATE 1999
REM DISCID A40C370B
REM COMMENT "ExactAudioCopy v1.0b3"
PERFORMER "Arturo Sandoval"
TITLE "Americana"
FILE "01. Just the Way You Are.wav" WAVE
TRACK 01 AUDIO
TITLE "Just the Way You Are"
PERFORMER "Arturo Sandoval"
INDEX 01 00:00:00
TRACK 02 AUDIO
TITLE "Come Back to Me"
PERFORMER "Arturo Sandoval"
INDEX 00 04:19:32
FILE "02. Come Back to Me.wav" WAVE
INDEX 01 00:00:00
TRACK 03 AUDIO
TITLE "Englishman in New York"
PERFORMER "Arturo Sandoval"
INDEX 00 05:20:35
FILE "03. Englishman in New York.wav" WAVE
INDEX 01 00:00:00
TRACK 04 AUDIO
TITLE "Let's Stay Together"
PERFORMER "Arturo Sandoval"
INDEX 00 04:19:73
FILE "04. Let's Stay Together.wav" WAVE
INDEX 01 00:00:00
TRACK 05 AUDIO
TITLE "All Night Long"
PERFORMER "Arturo Sandoval"
INDEX 00 04:49:42
FILE "05. All Night Long.wav" WAVE
INDEX 01 00:00:00
TRACK 06 AUDIO
TITLE "Baby Come to Me"
PERFORMER "Arturo Sandoval"
INDEX 00 05:44:03
FILE "06. Baby Come to Me.wav" WAVE
INDEX 01 00:00:00
TRACK 07 AUDIO
TITLE "Killing Me Softly With His Song"
PERFORMER "Arturo Sandoval"
INDEX 00 03:29:28
FILE "07. Killing Me Softly With His Song.wav" WAVE
INDEX 01 00:00:00
TRACK 08 AUDIO
TITLE "If You Leave Me Now"
PERFORMER "Arturo Sandoval"
INDEX 00 04:40:40
FILE "08. If You Leave Me Now.wav" WAVE
INDEX 01 00:00:00
TRACK 09 AUDIO
TITLE "She's Out of My life"
PERFORMER "Arturo Sandoval"
INDEX 00 05:42:55
FILE "09. She's Out of My life.wav" WAVE
INDEX 01 00:00:00
TRACK 10 AUDIO
TITLE "We've Only Just Begun"
PERFORMER "Arturo Sandoval"
INDEX 00 03:36:65
FILE "10. We've Only Just Begun.wav" WAVE
INDEX 01 00:00:00
TRACK 11 AUDIO
TITLE "Isn't She Lovely"
PERFORMER "Arturo Sandoval"
INDEX 00 04:21:12
FILE "11. Isn't She Lovely.wav" WAVE
INDEX 01 00:00:00
 
Состав
Personnel: Arturo Sandoval (trumpet, flugelhorn, piano); Dan Warner, Rene Toledo (guitar); Ricardo Eddy Martinez (strings, keyboards, programming); Doug Emery (strings); Gustavo Cruz (flute); Ed Calle (clarinet, alto saxophone, tenor saxophone, baritone saxophone, EWI); Charles McNeill (soprano saxophone, tenor saxophone); Jason Carder (trumpet, flugelhorn); Peter Graves , Dana Teboe (trombone); Jim Gasior (piano, keyboards); Doug Bickel (piano); Ernesto Simpson (drums); Luis Enrique (percussion).Recorded at Turi's Music Recording Studio, Miami, Florida.
14:08
537
Нет комментариев. Ваш будет первым!