Поиск

(World Fusion / Contemporary Jazz) Okay Temiz / Sylvain Kassap - Istanbul' Da Eylül - 1989, FLAC (image+.cue), lossless

(World Fusion / Contemporary Jazz) Okay Temiz / Sylvain Kassap - Istanbul' Da Eylül - 1989, FLAC (image+.cue), lossless
Треклист:
Okay Temiz / Sylvain Kassap - Istanbul' Da Eylül
Жанр: World Fusion / Contemporary Jazz
Год выпуска диска: 1989
Производитель диска: France (La Lichère LLL 67)
Аудио кодек: FLAC
Тип рипа: image+.cue
Битрейт аудио: lossless
Продолжительность: 47:03
Okay Temiz drums, percussion
Sylvain Kassap clarinet, soprano and sopranino saxophones
Lennart Åberg tenor and soprano saxophones, flute
Nedim Nalbantoglu violin
Alain Blesing guitars
Yves Rousseau bass
1. Çicek Pasaji
2. Tekez Otlatmasi
3. Yeniköy
4. Mirage
5. Ortaköy
6. On Yedi
7. Köçekce
8. Karaköy
9. Oasis
10. Quixote
Recorded in September 1989
 
EAC Report
Exact Audio Copy V0.99 prebeta 4 from 23. January 2008
EAC extraction logfile from 21. March 2009, 12:31
Okay Temiz / Sylvain Kassap / Istanbul' Da Eylül
Used drive : TSSTcorpCD/DVDW SH-S182M Adapter: 2 ID: 1
Read mode : Secure
Utilize accurate stream : Yes
Defeat audio cache : Yes
Make use of C2 pointers : No
Read offset correction : 6
Overread into Lead-In and Lead-Out : No
Fill up missing offset samples with silence : Yes
Delete leading and trailing silent blocks : No
Null samples used in CRC calculations : Yes
Used interface : Installed external ASPI interface
Used output format : User Defined Encoder
Selected bitrate : 1024 kBit/s
Quality : High
Add ID3 tag : No
Command line compressor : C:\Program Files\Exact Audio Copy\FLAC\FLAC.EXE
Additional command line options : -8 -V -T "ARTIST=%a" -T "TITLE=%t" -T "ALBUM=%g" -T "DATE=%y" -T "TRACKNUMBER=%n" -T "GENRE=%m" -T "COMMENT=%e" %s -o %d
TOC of the extracted CD
Track | Start | Length | Start sector | End sector
---------------------------------------------------------
1 | 0:00.32 | 5:07.10 | 32 | 23066
2 | 5:07.42 | 6:40.65 | 23067 | 53131
3 | 11:48.32 | 2:05.40 | 53132 | 62546
4 | 13:53.72 | 7:54.73 | 62547 | 98169
5 | 21:48.70 | 2:33.70 | 98170 | 109714
6 | 24:22.65 | 5:30.72 | 109715 | 134536
7 | 29:53.62 | 4:31.55 | 134537 | 154916
8 | 34:25.42 | 1:12.18 | 154917 | 160334
9 | 35:37.60 | 5:01.15 | 160335 | 182924
10 | 40:39.00 | 6:23.65 | 182925 | 211714
Range status and errors
Selected range
Filename C:\Documents and Settings\Igor\My Documents\My Music\eac\Okay Temiz & Sylvain Kassap - Istanbul' Da Eylül.wav
Peak level 93.3 %
Range quality 99.9 %
Test CRC 273B0442
Copy CRC 273B0442
Copy OK
No errors occurred
AccurateRip summary
Track 1 not present in database
Track 2 not present in database
Track 3 not present in database
Track 4 not present in database
Track 5 not present in database
Track 6 not present in database
Track 7 not present in database
Track 8 not present in database
Track 9 not present in database
Track 10 not present in database
None of the tracks are present in the AccurateRip database
End of status report
 
Содержание индексной карты (.CUE)
REM GENRE Jazz
REM DATE 1989
REM DISCID 790B060A
REM COMMENT "ExactAudioCopy v0.99pb4"
PERFORMER "Okay Temiz / Sylvain Kassap"
TITLE "Istanbul' Da Eylьl"
FILE "Okay Temiz & Sylvain Kassap - Istanbul' Da Eylьl.flac" WAVE
TRACK 01 AUDIO
TITLE "Зicek Pasaji"
PERFORMER "Okay Temiz / Sylvain Kassap"
INDEX 00 00:00:00
INDEX 01 00:00:32
TRACK 02 AUDIO
TITLE "Tekez Otlatmasi"
PERFORMER "Okay Temiz / Sylvain Kassap"
INDEX 00 05:04:32
INDEX 01 05:07:42
TRACK 03 AUDIO
TITLE "Yenikцy"
PERFORMER "Okay Temiz / Sylvain Kassap"
INDEX 00 11:45:15
INDEX 01 11:48:32
TRACK 04 AUDIO
TITLE "Mirage"
PERFORMER "Okay Temiz / Sylvain Kassap"
INDEX 00 13:51:27
INDEX 01 13:53:72
TRACK 05 AUDIO
TITLE "Ortakцy"
PERFORMER "Okay Temiz / Sylvain Kassap"
INDEX 00 21:44:02
INDEX 01 21:48:70
TRACK 06 AUDIO
TITLE "On Yedi"
PERFORMER "Okay Temiz / Sylvain Kassap"
INDEX 00 24:21:22
INDEX 01 24:22:65
TRACK 07 AUDIO
TITLE "Kцзekce"
PERFORMER "Okay Temiz / Sylvain Kassap"
INDEX 00 29:50:47
INDEX 01 29:53:62
TRACK 08 AUDIO
TITLE "Karakцy"
PERFORMER "Okay Temiz / Sylvain Kassap"
INDEX 00 34:20:52
INDEX 01 34:25:42
TRACK 09 AUDIO
TITLE "Oasis"
PERFORMER "Okay Temiz / Sylvain Kassap"
INDEX 01 35:37:60
TRACK 10 AUDIO
TITLE "Quixote"
PERFORMER "Okay Temiz / Sylvain Kassap"
INDEX 00 40:33:37
INDEX 01 40:39:00
amazone.com
По всем вопросам пишите личное сообщение пользователю M0p94ok.
06:26
203
Нет комментариев. Ваш будет первым!