Поиск

(World Fusion, Contemporary Jazz, Modern Creative, Caribbean) Etienne Charles - Creole Soul (feat. Jacques Schwarz, Ben Williams, Obed Calvaire) - 2013, FLAC (tracks+.cue), lossless

(World Fusion, Contemporary Jazz, Modern Creative, Caribbean) Etienne Charles - Creole Soul (feat. Jacques Schwarz, Ben Williams, Obed Calvaire) - 2013, FLAC (tracks+.cue), lossless
Треклист:
Etienne Charles /// Creole Soul
Жанр: World Fusion, Contemporary Jazz, Modern Creative, Caribbean
Год издания: 2013
Издатель (лейбл): Culture Shock Music
Номер по каталогу: 8658
Страна: Trinidad/USA
Аудиокодек: FLAC (*.flac)
Тип рипа: tracks+.cue
Битрейт аудио: lossless
Продолжительность: 00:56:53
Источник (релизер): weisguy
Наличие сканов в содержимом раздачи: нет
Треклист:
1. Creole (Intro) 0:19
2. Creole 6:05
3. The Folks 5:21
4. You Don't Love Me (Penn) 6:03
5. Roots 6:33
6. Memories (Devine) 6:06
7. Green Chimneys (Monk) 5:46
8. Turn Your Lights Down Low (Marley) 5:29
9. Midnight 6:53
10. Close Your Eyes 4:51
11. Doing the Thing 3:40
 
Лог создания рипа
Exact Audio Copy V1.0 beta 3 from 29. August 2011
EAC extraction logfile from 17. August 2013, 14:58
Etienne Charles / Creole Soul
Used drive : TSSTcorpCDDVDW SH-224BB Adapter: 1 ID: 0
Read mode : Secure
Utilize accurate stream : Yes
Defeat audio cache : Yes
Make use of C2 pointers : No
Read offset correction : 6
Overread into Lead-In and Lead-Out : No
Fill up missing offset samples with silence : Yes
Delete leading and trailing silent blocks : No
Null samples used in CRC calculations : Yes
Used interface : Native Win32 interface for Win NT & 2000
Gap handling : Appended to previous track
Used output format : User Defined Encoder
Selected bitrate : 1024 kBit/s
Quality : High
Add ID3 tag : No
Command line compressor : C:\Program Files (x86)\Exact Audio Copy\Flac\flac.exe
Additional command line options : -8 -V -T "ARTIST=%artist%" -T "TITLE=%title%" -T "ALBUM=%albumtitle%" -T "DATE=%year%" -T "TRACKNUMBER=%tracknr%" -T "GENRE=%genre%" -T "PERFORMER=%albuminterpret%" -T "COMPOSER=%composer%" %haslyrics%--tag-from-file=LYRICS="%lyricsfile%"%haslyrics% -T "ALBUMARTIST=%albumartist%" -T "DISCNUMBER=%cdnumber%" -T "TOTALDISCS=%totalcds%" -T "TOTALTRACKS=%numtracks%" -T "COMMENT=%comment%" %source% -o %dest%
TOC of the extracted CD
Track | Start | Length | Start sector | End sector
---------------------------------------------------------
1 | 0:00.00 | 0:19.40 | 0 | 1464
2 | 0:19.40 | 6:25.58 | 1465 | 30397
3 | 6:45.23 | 5:20.69 | 30398 | 54466
4 | 12:06.17 | 5:55.26 | 54467 | 81117
5 | 18:01.43 | 6:30.52 | 81118 | 110419
6 | 24:32.20 | 6:03.06 | 110420 | 137650
7 | 30:35.26 | 5:42.34 | 137651 | 163334
8 | 36:17.60 | 4:54.35 | 163335 | 185419
9 | 41:12.20 | 6:52.33 | 185420 | 216352
10 | 48:04.53 | 4:52.55 | 216353 | 238307
11 | 52:57.33 | 3:26.13 | 238308 | 253770
Track 1
Filename d:\wave dumps\01 - Creole (Intro).wav
Pre-gap length 0:00:02.00
Peak level 46.0 %
Extraction speed 1.7 X
Track quality 100.0 %
Test CRC 3EC1B4AB
Copy CRC 3EC1B4AB
Track not present in AccurateRip database
Copy OK
Track 2
Filename d:\wave dumps\02 - Creole.wav
Peak level 100.0 %
Extraction speed 4.4 X
Track quality 99.9 %
Test CRC 81743327
Copy CRC 81743327
Track not present in AccurateRip database
Copy OK
Track 3
Filename d:\wave dumps\03 - The Folks.wav
Pre-gap length 0:00:00.06
Peak level 98.2 %
Extraction speed 5.6 X
Track quality 100.0 %
Test CRC E390D5A7
Copy CRC E390D5A7
Track not present in AccurateRip database
Copy OK
Track 4
Filename d:\wave dumps\04 - You Don't Love Me.wav
Pre-gap length 0:00:01.05
Peak level 100.0 %
Extraction speed 4.5 X
Track quality 99.9 %
Test CRC 20530788
Copy CRC 20530788
Track not present in AccurateRip database
Copy OK
Track 5
Filename d:\wave dumps\05 - Roots.wav
Pre-gap length 0:00:00.70
Peak level 100.0 %
Extraction speed 5.8 X
Track quality 99.9 %
Test CRC 8395FFF5
Copy CRC 8395FFF5
Track not present in AccurateRip database
Copy OK
Track 6
Filename d:\wave dumps\06 - Memories.wav
Pre-gap length 0:00:01.68
Peak level 100.0 %
Extraction speed 7.4 X
Track quality 100.0 %
Test CRC 9517B056
Copy CRC 9517B056
Track not present in AccurateRip database
Copy OK
Track 7
Filename d:\wave dumps\07 - Green Chimneys.wav
Pre-gap length 0:00:01.12
Peak level 99.2 %
Extraction speed 7.7 X
Track quality 100.0 %
Test CRC 1F0DF020
Copy CRC 1F0DF020
Track not present in AccurateRip database
Copy OK
Track 8
Filename d:\wave dumps\08 - Turn Your Lights Down Low.wav
Pre-gap length 0:00:00.30
Peak level 97.6 %
Extraction speed 6.6 X
Track quality 99.9 %
Test CRC 8D4BCE21
Copy CRC 8D4BCE21
Track not present in AccurateRip database
Copy OK
Track 9
Filename d:\wave dumps\09 - Midnight.wav
Pre-gap length 0:00:01.57
Peak level 100.0 %
Extraction speed 8.6 X
Track quality 100.0 %
Test CRC 408C3E01
Copy CRC 408C3E01
Track not present in AccurateRip database
Copy OK
Track 10
Filename d:\wave dumps\10 - Close Your Eyes.wav
Pre-gap length 0:00:01.34
Peak level 92.9 %
Extraction speed 8.7 X
Track quality 100.0 %
Test CRC 02035D30
Copy CRC 02035D30
Track not present in AccurateRip database
Copy OK
Track 11
Filename d:\wave dumps\11 - Doin' The Thing.wav
Pre-gap length 0:00:01.34
Peak level 100.0 %
Extraction speed 6.5 X
Track quality 99.9 %
Test CRC C82D4A2E
Copy CRC C82D4A2E
Track not present in AccurateRip database
Copy OK
None of the tracks are present in the AccurateRip database
No errors occurred
End of status report
==== Log checksum 724C0EBBAA9F5D8BA8316CACCA9D70D6F25AD0DF215D23E6EAB6D604DCFAD236 ====
 
Содержание индексной карты (.CUE)
REM GENRE Jazz
REM DATE 2013
REM DISCID A00D370B
REM COMMENT "ExactAudioCopy v1.0b3"
PERFORMER "Etienne Charles"
TITLE "Creole Soul"
FILE "01 - Creole (Intro).wav" WAVE
TRACK 01 AUDIO
TITLE "Creole (Intro)"
PERFORMER "Etienne Charles"
ISRC US3DZ1300001
INDEX 01 00:00:00
FILE "02 - Creole.wav" WAVE
TRACK 02 AUDIO
TITLE "Creole"
PERFORMER "Etienne Charles"
ISRC US3DZ1300002
INDEX 01 00:00:00
TRACK 03 AUDIO
TITLE "The Folks"
PERFORMER "Etienne Charles"
ISRC US3DZ1300003
INDEX 00 06:25:53
FILE "03 - The Folks.wav" WAVE
INDEX 01 00:00:00
TRACK 04 AUDIO
TITLE "You Don't Love Me"
PERFORMER "Etienne Charles"
ISRC US3DZ1300004
INDEX 00 05:19:65
FILE "04 - You Don't Love Me.wav" WAVE
INDEX 01 00:00:00
TRACK 05 AUDIO
TITLE "Roots"
PERFORMER "Etienne Charles"
ISRC US3DZ1300005
INDEX 00 05:54:48
FILE "05 - Roots.wav" WAVE
INDEX 01 00:00:00
TRACK 06 AUDIO
TITLE "Memories"
PERFORMER "Etienne Charles"
ISRC US3DZ1300006
INDEX 00 06:29:01
FILE "06 - Memories.wav" WAVE
INDEX 01 00:00:00
TRACK 07 AUDIO
TITLE "Green Chimneys"
PERFORMER "Etienne Charles"
ISRC US3DZ1300007
INDEX 00 06:01:72
FILE "07 - Green Chimneys.wav" WAVE
INDEX 01 00:00:00
TRACK 08 AUDIO
TITLE "Turn Your Lights Down Low"
PERFORMER "Etienne Charles"
ISRC US3DZ1300008
INDEX 00 05:42:11
FILE "08 - Turn Your Lights Down Low.wav" WAVE
INDEX 01 00:00:00
TRACK 09 AUDIO
TITLE "Midnight"
PERFORMER "Etienne Charles"
ISRC US3DZ1300009
INDEX 00 04:52:67
FILE "09 - Midnight.wav" WAVE
INDEX 01 00:00:00
TRACK 10 AUDIO
TITLE "Close Your Eyes"
PERFORMER "Etienne Charles"
ISRC US3DZ1300010
INDEX 00 06:51:07
FILE "10 - Close Your Eyes.wav" WAVE
INDEX 01 00:00:00
TRACK 11 AUDIO
TITLE "Doin' The Thing"
PERFORMER "Etienne Charles"
ISRC US3DZ1300011
INDEX 00 04:51:29
FILE "11 - Doin' The Thing.wav" WAVE
INDEX 01 00:00:00
 
Об альбоме (сборнике)
 
Состав
Etienne Charles trumpet, flugelhorn & percussion
Brian Hogans alto sax
Jacques Schwarz-Bart tenor sax
Kris Bowers piano & fender rhodes
Ben Williams bass
Obed Calvaire drums
with special guests
Erol Josué vocals (1, 2)
Daniel Sadownick percussion & vocals (5)
D'Achee percussion (2, 3, 7, 11) vocals (5)
Alex Wintz guitar (2, 5, 6)
13:00
364
Нет комментариев. Ваш будет первым!