Поиск

(World Fusion, Contemporary Jazz) Graham Haynes - The Griots Footsteps - 1997, FLAC (image+.cue), lossless

(World Fusion, Contemporary Jazz) Graham Haynes - The Griots Footsteps - 1997, FLAC (image+.cue), lossless
Треклист:
♦ Graham Haynes - The Griots Footsteps ♦
Жанр: World Fusion, Contemporary Jazz
Страна-производитель диска: France
Год издания: 1997
Издатель (лейбл): Verve Records
Номер по каталогу: 523 262-2
Аудиокодек: FLAC (*.flac)
Тип рипа: image+.cue
Битрейт аудио: lossless
Продолжительность: 00:59:43
Источник (релизер): albucid
Наличие сканов в содержимом раздачи: да
Треклист:
01. Gothic [02:53]
02. R.H. [05:17]
03. Enlightenment [26:40]
04. Flip Stories [09:00]
05. Psychic Plane [01:12]
06. The Griots Footsteps [14:40]
 
Лог создания рипа
Exact Audio Copy V1.0 beta 3 from 29. August 2011
EAC extraction logfile from 18. March 2013, 12:06
Graham Haynes / The Griots Footsteps
Used drive : ASUS BW-12B1ST Adapter: 0 ID: 1
Read mode : Secure
Utilize accurate stream : Yes
Defeat audio cache : Yes
Make use of C2 pointers : No
Read offset correction : 6
Overread into Lead-In and Lead-Out : No
Fill up missing offset samples with silence : Yes
Delete leading and trailing silent blocks : No
Null samples used in CRC calculations : Yes
Used interface : Native Win32 interface for Win NT & 2000
Used output format : User Defined Encoder
Selected bitrate : 896 kBit/s
Quality : High
Add ID3 tag : No
Command line compressor : C:\Program Files (x86)\Exact Audio Copy\Flac\flac.exe
Additional command line options : -V -8 -T "Date=%year%" -T "Genre=%genre%" %source%
TOC of the extracted CD
Track | Start | Length | Start sector | End sector
---------------------------------------------------------
1 | 0:00.32 | 2:53.03 | 32 | 13009
2 | 2:53.35 | 5:17.60 | 13010 | 36844
3 | 8:11.20 | 26:40.50 | 36845 | 156894
4 | 34:51.70 | 9:00.00 | 156895 | 197394
5 | 43:51.70 | 1:12.25 | 197395 | 202819
6 | 45:04.20 | 14:40.12 | 202820 | 268831
Range status and errors
Selected range
Filename F:\EAC\Graham Haynes\1994 - The Griots Footsteps\Graham Haynes - The Griots Footsteps.wav
Peak level 100.0 %
Extraction speed 3.4 X
Range quality 100.0 %
Test CRC E4B6E2CC
Copy CRC E4B6E2CC
Copy OK
No errors occurred
AccurateRip summary
Track 1 accurately ripped (confidence 2) [9085B05D] (AR v1)
Track 2 accurately ripped (confidence 2) [0A402098] (AR v1)
Track 3 accurately ripped (confidence 2) [D60449F7] (AR v1)
Track 4 accurately ripped (confidence 2) [5E34B226] (AR v1)
Track 5 accurately ripped (confidence 2) [5EA07FB7] (AR v1)
Track 6 accurately ripped (confidence 2) [6D0F85B4] (AR v1)
All tracks accurately ripped
End of status report
==== Log checksum DDB7377E0A5B1B10B5482B111F18D3CD98648992365D3184F24C016F06005D53 ====
 
Содержание индексной карты (.CUE)
REM GENRE "Contemporary Jazz"
REM DATE 1994
REM DISCID 4A0E0006
REM COMMENT "ExactAudioCopy v1.0b3"
PERFORMER "Graham Haynes"
TITLE "The Griots Footsteps"
FILE "Graham Haynes - The Griots Footsteps.flac" WAVE
TRACK 01 AUDIO
TITLE "Gothic"
PERFORMER "Graham Haynes"
ISRC FRZ029401340
INDEX 00 00:00:00
INDEX 01 00:00:32
TRACK 02 AUDIO
TITLE "R.H."
PERFORMER "Graham Haynes"
ISRC FRZ029401350
INDEX 01 02:53:35
TRACK 03 AUDIO
TITLE "Enlightenment"
PERFORMER "Graham Haynes"
ISRC FRZ029401360
INDEX 01 08:11:20
TRACK 04 AUDIO
TITLE "Flip Stories"
PERFORMER "Graham Haynes"
ISRC FRZ029401390
INDEX 01 34:51:70
TRACK 05 AUDIO
TITLE "Psychic Plane"
PERFORMER "Graham Haynes"
ISRC FRZ029401380
INDEX 00 43:48:45
INDEX 01 43:51:70
TRACK 06 AUDIO
TITLE "The Griots Footsteps"
PERFORMER "Graham Haynes"
ISRC FRZ029401370
INDEX 00 45:02:45
INDEX 01 45:04:20
 
Состав
Personnel:Graham Haynes (cornet, keyboards), Steve Williamson (tenor & soprano saxophones), Cheick Tidiane-Seck, Don-Dieu Divin, Luis Manresa (keyboards), Laroussi-Ali Djamel (guitar), Brigette Menon (sitar), Lyra Menon (tanpura), Vincent Othieno (bass), Brice Wassy (drums, vocals), Chief Udoh Essiet (talking drum), Jorge Amorim, Daniel Moreno (percussion).
11:04
272
Нет комментариев. Ваш будет первым!