Поиск

(World Fusion, Contemporary) Ibrahim Maalouf - Diagnostic - 2011, FLAC (tracks+.cue), lossless

Ibrahim Maalouf - Diagnostic
Жанр: World Fusion, Contemporary
Страна-производитель диска: France
Год издания диска: 2011
Издатель (лейбл): Mi'ster Productions
Страна: France
Аудиокодек: FLAC (*.flac)
Тип рипа: tracks+.cue
Битрейт аудио: lossless
Продолжительность: 01:04:27
Источник (релизер): What CD
Наличие сканов в содержимом раздачи: да
Треклист:
01. Lily (is 2)
02. Will soon be a woman
03. Intro
04. Maeva in the wonderland
05. Your soul
06. Everything or nothing
07. Never serious
08. We'll always care about you
09. Douce (feat Oxmo Puccino)
10. All the beautifull things
11. Diagnostic
12. Beirut
 
Лог создания рипа
Exact Audio Copy V1.0 beta 3 from 29. August 2011
EAC extraction logfile from 25. October 2011, 18:08
Ibrahim Maalouf / Diagnostic
Used drive : PLEXTOR DVDR PX-860A Adapter: 0 ID: 0
Read mode : Secure
Utilize accurate stream : Yes
Defeat audio cache : Yes
Make use of C2 pointers : No
Read offset correction : 96
Overread into Lead-In and Lead-Out : No
Fill up missing offset samples with silence : Yes
Delete leading and trailing silent blocks : No
Null samples used in CRC calculations : Yes
Used interface : Native Win32 interface for Win NT & 2000
Gap handling : Appended to previous track
Used output format : User Defined Encoder
Selected bitrate : 1024 kBit/s
Quality : High
Add ID3 tag : No
Command line compressor : C:\Program Files\Exact Audio Copy 3\Flac\flac.exe
Additional command line options : -8 -V -T "ARTIST=%artist%" -T "TITLE=%title%" -T "ALBUM=%albumtitle%" -T "DATE=%year%" -T "TRACKNUMBER=%tracknr%" -T "TOTALTRACKS=%numtracks%" -T "GENRE=%genre%" -T "ALBUM ARTIST=%albumartist%" -T "ALBUMARTIST=%albumartist%" -T "COMMENT=EAC V1.0 beta 3, Secure Mode, Test & Copy, AccurateRip, FLAC -8" %source%
TOC of the extracted CD
Track | Start | Length | Start sector | End sector
---------------------------------------------------------
1 | 0:00.00 | 2:07.41 | 0 | 9565
2 | 2:07.41 | 5:30.54 | 9566 | 34369
3 | 7:38.20 | 1:19.47 | 34370 | 40341
4 | 8:57.67 | 6:47.33 | 40342 | 70899
5 | 15:45.25 | 2:22.37 | 70900 | 81586
6 | 18:07.62 | 7:04.37 | 81587 | 113423
7 | 25:12.24 | 4:24.51 | 113424 | 133274
8 | 29:37.00 | 4:26.20 | 133275 | 153244
9 | 34:03.20 | 5:45.04 | 153245 | 179123
10 | 39:48.24 | 11:01.17 | 179124 | 228715
11 | 50:49.41 | 2:54.50 | 228716 | 241815
12 | 53:44.16 | 10:42.33 | 241816 | 289998
Track 1
Filename S:\DL\Ibrahim Maalouf - Diagnostic (2011) [FLAC]\01 - Lily (is 2).wav
Pre-gap length 0:00:02.00
Peak level 51.7 %
Extraction speed 4.0 X
Track quality 100.0 %
Test CRC D703935E
Copy CRC D703935E
Track not present in AccurateRip database
Copy OK
Track 2
Filename S:\DL\Ibrahim Maalouf - Diagnostic (2011) [FLAC]\02 - Will Soon Be a Woman.wav
Pre-gap length 0:00:00.11
Peak level 100.0 %
Extraction speed 5.1 X
Track quality 100.0 %
Test CRC C41E06BD
Copy CRC C41E06BD
Track not present in AccurateRip database
Copy OK
Track 3
Filename S:\DL\Ibrahim Maalouf - Diagnostic (2011) [FLAC]\03 - Intro.wav
Pre-gap length 0:00:02.40
Peak level 36.2 %
Extraction speed 4.2 X
Track quality 100.0 %
Test CRC F9513FEB
Copy CRC F9513FEB
Track not present in AccurateRip database
Copy OK
Track 4
Filename S:\DL\Ibrahim Maalouf - Diagnostic (2011) [FLAC]\04 - Maeva in the Wonderland.wav
Peak level 99.7 %
Extraction speed 5.9 X
Track quality 100.0 %
Test CRC A74FBF5E
Copy CRC A74FBF5E
Track not present in AccurateRip database
Copy OK
Track 5
Filename S:\DL\Ibrahim Maalouf - Diagnostic (2011) [FLAC]\05 - Your Soul.wav
Pre-gap length 0:00:08.42
Peak level 99.7 %
Extraction speed 5.5 X
Track quality 100.0 %
Test CRC 0E313BA7
Copy CRC 0E313BA7
Track not present in AccurateRip database
Copy OK
Track 6
Filename S:\DL\Ibrahim Maalouf - Diagnostic (2011) [FLAC]\06 - Everything or Nothing.wav
Pre-gap length 0:00:00.12
Peak level 99.7 %
Extraction speed 6.8 X
Track quality 100.0 %
Test CRC 0AA7DD28
Copy CRC 0AA7DD28
Track not present in AccurateRip database
Copy OK
Track 7
Filename S:\DL\Ibrahim Maalouf - Diagnostic (2011) [FLAC]\07 - Never Serious.wav
Pre-gap length 0:00:04.03
Peak level 99.8 %
Extraction speed 6.8 X
Track quality 100.0 %
Test CRC C9BE63A0
Copy CRC C9BE63A0
Track not present in AccurateRip database
Copy OK
Track 8
Filename S:\DL\Ibrahim Maalouf - Diagnostic (2011) [FLAC]\08 - We'll Always Care About You.wav
Pre-gap length 0:00:01.45
Peak level 99.8 %
Extraction speed 6.4 X
Track quality 99.9 %
Test CRC D72FDBA9
Copy CRC D72FDBA9
Track not present in AccurateRip database
Copy OK
Track 9
Filename S:\DL\Ibrahim Maalouf - Diagnostic (2011) [FLAC]\09 - Douce (feat. Oxmo Puccino).wav
Pre-gap length 0:00:02.61
Peak level 99.7 %
Extraction speed 7.7 X
Track quality 100.0 %
Test CRC 1E7673D5
Copy CRC 1E7673D5
Track not present in AccurateRip database
Copy OK
Track 10
Filename S:\DL\Ibrahim Maalouf - Diagnostic (2011) [FLAC]\10 - All the Beautiful Things.wav
Pre-gap length 0:00:03.21
Peak level 99.7 %
Extraction speed 8.6 X
Track quality 100.0 %
Test CRC A9A59539
Copy CRC A9A59539
Track not present in AccurateRip database
Copy OK
Track 11
Filename S:\DL\Ibrahim Maalouf - Diagnostic (2011) [FLAC]\11 - Diagnostic.wav
Peak level 87.3 %
Extraction speed 7.7 X
Track quality 100.0 %
Test CRC FEEEE1B1
Copy CRC FEEEE1B1
Track not present in AccurateRip database
Copy OK
Track 12
Filename S:\DL\Ibrahim Maalouf - Diagnostic (2011) [FLAC]\12 - Beirut.wav
Pre-gap length 0:00:03.67
Peak level 99.7 %
Extraction speed 8.9 X
Track quality 99.9 %
Test CRC F91E0DF1
Copy CRC F91E0DF1
Track not present in AccurateRip database
Copy OK
None of the tracks are present in the AccurateRip database
No errors occurred
End of status report
---- CUETools DB Plugin V2.1.3
[CTDB TOCID: E9hNWH_luQOolaYu3DB_xi4z.cg-] disk not present in database, Submit result: E9hNWH_luQOolaYu3DB_xi4z.cg- has been uploaded
==== Log checksum 4B95D66610624B230B64E5ADDA075C8C77BA9982C1C00EB69C15C2870CA56DEE ====
 
Содержание индексной карты (.CUE)
REM GENRE Jazz
REM DATE 2011
REM DISCID A10F1A0C
REM COMMENT "ExactAudioCopy v1.0b3"
PERFORMER "Ibrahim Maalouf"
TITLE "Diagnostic"
FILE "01 - Lily (is 2).wav" WAVE
TRACK 01 AUDIO
TITLE "Lily (is 2)"
PERFORMER "Ibrahim Maalouf"
INDEX 01 00:00:00
TRACK 02 AUDIO
TITLE "Will Soon Be a Woman"
PERFORMER "Ibrahim Maalouf"
INDEX 00 02:07:30
FILE "02 - Will Soon Be a Woman.wav" WAVE
INDEX 01 00:00:00
TRACK 03 AUDIO
TITLE "Intro"
PERFORMER "Ibrahim Maalouf"
INDEX 00 05:28:14
FILE "03 - Intro.wav" WAVE
INDEX 01 00:00:00
FILE "04 - Maeva in the Wonderland.wav" WAVE
TRACK 04 AUDIO
TITLE "Maeva in the Wonderland"
PERFORMER "Ibrahim Maalouf"
INDEX 01 00:00:00
TRACK 05 AUDIO
TITLE "Your Soul"
PERFORMER "Ibrahim Maalouf"
INDEX 00 06:38:66
FILE "05 - Your Soul.wav" WAVE
INDEX 01 00:00:00
TRACK 06 AUDIO
TITLE "Everything or Nothing"
PERFORMER "Ibrahim Maalouf"
INDEX 00 02:22:25
FILE "06 - Everything or Nothing.wav" WAVE
INDEX 01 00:00:00
TRACK 07 AUDIO
TITLE "Never Serious"
PERFORMER "Ibrahim Maalouf"
INDEX 00 07:00:34
FILE "07 - Never Serious.wav" WAVE
INDEX 01 00:00:00
TRACK 08 AUDIO
TITLE "We'll Always Care About You"
PERFORMER "Ibrahim Maalouf"
INDEX 00 04:23:06
FILE "08 - We'll Always Care About You.wav" WAVE
INDEX 01 00:00:00
TRACK 09 AUDIO
TITLE "Douce (feat. Oxmo Puccino)"
PERFORMER "Ibrahim Maalouf"
INDEX 00 04:23:34
FILE "09 - Douce (feat. Oxmo Puccino).wav" WAVE
INDEX 01 00:00:00
TRACK 10 AUDIO
TITLE "All the Beautiful Things"
PERFORMER "Ibrahim Maalouf"
INDEX 00 05:41:58
FILE "10 - All the Beautiful Things.wav" WAVE
INDEX 01 00:00:00
FILE "11 - Diagnostic.wav" WAVE
TRACK 11 AUDIO
TITLE "Diagnostic"
PERFORMER "Ibrahim Maalouf"
INDEX 01 00:00:00
TRACK 12 AUDIO
TITLE "Beirut"
PERFORMER "Ibrahim Maalouf"
INDEX 00 02:50:58
FILE "12 - Beirut.wav" WAVE
INDEX 01 00:00:00
 
Лог проверки качества
-----------------------
DON'T MODIFY THIS FILE
-----------------------
PERFORMER: auCDtect Task Manager, ver. 1.5.1RC4 build 1.5.1.5
Copyright (c) 2008-2010 y-soft. All rights reserved
http://y-soft.org
ANALYZER: auCDtect: CD records authenticity detector, version 0.8.2
Copyright (c) 2004 Oleg Berngardt. All rights reserved.
Copyright (c) 2004 Alexander Djourik. All rights reserved.
FILE: 12 - Beirut.flac
Size: 56513982 Hash: 8B2ABA34ACF3D8B6469F831155D9695B Accuracy: -m0
Conclusion: CDDA 85%
Signature: A77C748D7068E51B595EBDF7C360C1834D97F9E7
FILE: 11 - Diagnostic.flac
Size: 11410345 Hash: AA06655F9D9B5F9FC389E774357DE3FC Accuracy: -m0
Conclusion: CDDA 100%
Signature: C9CD6F436131572D6BD4440A74286B165D2E39DB
FILE: 10 - All the Beautiful Things.flac
Size: 55870713 Hash: 549432E30FD8539DBA3B28F4322266B9 Accuracy: -m0
Conclusion: CDDA 100%
Signature: 7360F8DE923C1FC799302F8AA37F68BB96C46CE1
FILE: 09 - Douce (feat. Oxmo Puccino).flac
Size: 32237206 Hash: C13543A22EDC9F9373CA402C46F461D4 Accuracy: -m0
Conclusion: CDDA 100%
Signature: FCED05FA372122E6B71EA73B3236A0BCA33247E1
FILE: 08 - We'll Always Care About You.flac
Size: 29990691 Hash: B0DE6368327A9734D89364E2686FEE22 Accuracy: -m0
Conclusion: CDDA 100%
Signature: F04529E88D581D3563D84A299CAA0D06C1982200
FILE: 07 - Never Serious.flac
Size: 27614581 Hash: D41F8791DE538202A228B782F9DE16E6 Accuracy: -m0
Conclusion: CDDA 100%
Signature: 6E138EEB56E938C830B758BB9AF9450B6B526BB2
FILE: 06 - Everything or Nothing.flac
Size: 31481841 Hash: 67BA552F284466CC646AD69FD77352CB Accuracy: -m0
Conclusion: CDDA 100%
Signature: AED41B205E7DAB68A332D1ED800C0C47CD90E626
FILE: 05 - Your Soul.flac
Size: 9985532 Hash: 5C0D9AD5F2183C2619259BE8279F831B Accuracy: -m0
Conclusion: MPEG 92%
Signature: A9D3A40E268E63810CA7E7B2DCE98C0DB0A45311
FILE: 04 - Maeva in the Wonderland.flac
Size: 44083579 Hash: BE980C34E3A1D635EB406F5695F8D2D8 Accuracy: -m0
Conclusion: CDDA 100%
Signature: FE883DEFA270B5F5EE249EE38ED04F65BF2E67C4
FILE: 03 - Intro.flac
Size: 6625636 Hash: 82CBF360F23BABA217EB4A3CD63C3675 Accuracy: -m0
Conclusion: MPEG 90%
Signature: 7F7011F8B4928464ACC1468AFA5C9A7667FDDA5B
FILE: 02 - Will Soon Be a Woman.flac
Size: 28317751 Hash: D85C238C6C404C8FBF9A8D42904B77F8 Accuracy: -m0
Conclusion: CDDA 43%
Signature: 732983B1934C008EEF72BBB72CA0CD84F7E5A817
FILE: 01 - Lily (is 2).flac
Size: 6386437 Hash: 40EF108CC38347DEFBDC430BE5D95822 Accuracy: -m0
Conclusion: CDDA 100%
Signature: DCC745A55C8212101914BD8107B456133FB139C2
 
Об исполнителе (группе)
Ибрагим Маалуф (Ibrahim Maalouf) (род. 1980 г. в Бейруте, Ливан) - французкий трубач, композитор, аранжировщик и преподаватель, единственный пока трубач, который играет арабскую музыку на трубе, но на трубе не простой, а с четырьмя тонами. Эту трубу изобрел его отец, тоже трубач, в 1960 специально для того, чтобы из этого духового инструмента можно было выдувать арабские мелодии.
Ибрагим из самой, что не наесть интеллигентной арабской семьи: отец и мать музыканты, дядя - писатель, дедушка сразу в одном лице и журналист, и поэт, и музыковед. Его семья иммигрировала из Ливана во время гражданской войны во Францию, и поселилась в предместье Парижа.
На трубе Ибрагим начал играть в 7 лет. Учил его этому, как можно догадаться, отец трубач. Кроме этого отец привил ему любовь к классической и современной музыке, арабской музыке, научил также особому искусству арабской импровизации. С 9 лет Ибрагим уже сопровождал отца в его поездах по странам Европы и Ближнего Востока. Исполняли они дуэтом музыку Вивальди, Пёрселля, Альбинони и других композиторов барокко. В 17 лет Ибрагим привлек себе внимания профессионалов от музыки, когда на концерте совместно с камерным оркестром исполнил 2-ой Бранденбургский концерт Баха, где можно много поиграть на трубе. Именно в это время Ибрагим познакомился с Андре Морис , который убедил Ибрагима забросить любимую им математику, закопать диплом бакалавра математических наук и посвятить себя полностью музыке. Дальше пошли долги годы учебы в консерватории, участие и победы на различных престижных международных музыкальных конкурсах (15 побед).
00:40
740
Нет комментариев. Ваш будет первым!