Поиск

(World Fusion) [CD] Renaud Garcia-Fons & Derya Türkan (Turkan) - Silk Moon - 2014, FLAC (tracks+.cue), lossless

(World Fusion) [CD] Renaud Garcia-Fons & Derya Türkan (Turkan) - Silk Moon - 2014, FLAC (tracks+.cue), lossless
Треклист:
Renaud García-Fons & Derya Türkan - Silk Moon
Жанр: World Fusion
Носитель: CD
Страна-производитель диска (релиза): France
Год издания: 2014
Издатель (лейбл): e-motive records
Номер по каталогу: EMO 141
Аудиокодек: FLAC (*.flac)
Тип рипа: tracks+.cue
Битрейт аудио: lossless
Продолжительность: 00:56:19
Источник (релизер): AvaxHome / all thanks goes to the original releaser !!!
Наличие сканов в содержимом раздачи: да
Треклист:
1. Silk Moon (03:38)
2. A girl from Istanbul (05:00)
3. Istanbul'da bir Ispanyol (04:58)
4. Kaman Tché (04:16)
5. Bahar Zamani (02:57)
6. Prayer Song (05:10)
7. Konstantinoupoli Reflections (03:35)
8. Dokuz Sekiz (02:26)
9. Camino de Sed (03:30)
10. Bosphorus Nostalgia (03:04)
11. Nishapur (02:18)
12. Beautiful House in Bad Homburg (04:17)
13. Lamentos (07:10)
14. Taksim Clouds (03:57)
Доп. информация:
Musicians:
Derya Türkan - Kemence of Istambul
Renaud García-Fons - 5 string double bass, percussion & arrangements
Claire Antonini - Teorbo (# 10)
Recorded and mixed by François de Raugan at Arcoluz Studio, February 2014
teaser
Renaud García-Fons Official Site
Renaud García-Fons from Wikipedia, the free encyclopedia
 
... photo ...
 
... back ...
 
Лог создания рипа
Exact Audio Copy V1.0 beta 3 from 29. August 2011
EAC extraction logfile from 15. April 2015, 14:52
Renaud Garcia-Fons & Derya Turkan / Silk Moon
Used drive : Optiarc DVD RW AD-5280S Adapter: 2 ID: 1
Read mode : Secure
Utilize accurate stream : Yes
Defeat audio cache : Yes
Make use of C2 pointers : No
Read offset correction : 48
Overread into Lead-In and Lead-Out : No
Fill up missing offset samples with silence : Yes
Delete leading and trailing silent blocks : No
Null samples used in CRC calculations : Yes
Used interface : Native Win32 interface for Win NT & 2000
Gap handling : Appended to previous track
Used output format : User Defined Encoder
Selected bitrate : 768 kBit/s
Quality : High
Add ID3 tag : No
Command line compressor : C:\Program Files\Exact Audio Copy\FLAC\FLAC.EXE
Additional command line options : -8 -V -T "ARTIST=%artist%" -T "TITLE=%title%" -T "ALBUM=%albumtitle%" -T "DATE=%year%" -T "TRACKNUMBER=%tracknr%" -T "TOTALTRACKS=%numtracks%" -T "GENRE=%genre%" -T "ALBUMARTIST=%albumartist%" -T "ALBUM ARTIST=%albumartist%" -T "COMMENT=EAC Secure Mode, Test & Copy, AccurateRip, FLAC -8" %source%
TOC of the extracted CD
Track | Start | Length | Start sector | End sector
---------------------------------------------------------
1 | 0:00.00 | 3:39.05 | 0 | 16429
2 | 3:39.05 | 5:01.43 | 16430 | 39047
3 | 8:40.48 | 4:59.48 | 39048 | 61520
4 | 13:40.21 | 4:16.29 | 61521 | 80749
5 | 17:56.50 | 2:59.39 | 80750 | 94213
6 | 20:56.14 | 5:11.25 | 94214 | 117563
7 | 26:07.39 | 3:36.47 | 117564 | 133810
8 | 29:44.11 | 2:27.39 | 133811 | 144874
9 | 32:11.50 | 3:32.70 | 144875 | 160844
10 | 35:44.45 | 3:05.56 | 160845 | 174775
11 | 38:50.26 | 2:20.28 | 174776 | 185303
12 | 41:10.54 | 4:18.28 | 185304 | 204681
13 | 45:29.07 | 7:09.62 | 204682 | 236918
14 | 52:38.69 | 3:57.21 | 236919 | 254714
Track 1
Filename F:\Renaud Garcia-Fons & Derya Turkan (2014) [FLAC] {e-motive records EMO141}\01 - Silk Moon.wav
Pre-gap length 0:00:02.00
Peak level 89.3 %
Extraction speed 4.4 X
Track quality 100.0 %
Test CRC 0566A45D
Copy CRC 0566A45D
Accurately ripped (confidence 2) [FF56CD83] (AR v2)
Copy OK
Track 2
Filename F:\Renaud Garcia-Fons & Derya Turkan (2014) [FLAC] {e-motive records EMO141}\02 - A girl from Istanbul.wav
Pre-gap length 0:00:01.00
Peak level 100.0 %
Extraction speed 5.1 X
Track quality 100.0 %
Test CRC 20F62A7B
Copy CRC 20F62A7B
Accurately ripped (confidence 2) [DD9082BE] (AR v2)
Copy OK
Track 3
Filename F:\Renaud Garcia-Fons & Derya Turkan (2014) [FLAC] {e-motive records EMO141}\03 - Istanbul'da bir Ispanyol.wav
Pre-gap length 0:00:01.00
Peak level 100.0 %
Extraction speed 5.7 X
Track quality 100.0 %
Test CRC 6F555A4E
Copy CRC 6F555A4E
Accurately ripped (confidence 2) [EC0830DF] (AR v2)
Copy OK
Track 4
Filename F:\Renaud Garcia-Fons & Derya Turkan (2014) [FLAC] {e-motive records EMO141}\04 - Kaman Tche.wav
Pre-gap length 0:00:01.40
Peak level 99.4 %
Extraction speed 6.1 X
Track quality 100.0 %
Test CRC 04C60A57
Copy CRC 04C60A57
Accurately ripped (confidence 2) [D0821CE5] (AR v2)
Copy OK
Track 5
Filename F:\Renaud Garcia-Fons & Derya Turkan (2014) [FLAC] {e-motive records EMO141}\05 - Bahar Zamani.wav
Peak level 99.4 %
Extraction speed 6.1 X
Track quality 100.0 %
Test CRC 6A9867B4
Copy CRC 6A9867B4
Accurately ripped (confidence 2) [577BE905] (AR v2)
Copy OK
Track 6
Filename F:\Renaud Garcia-Fons & Derya Turkan (2014) [FLAC] {e-motive records EMO141}\06 - Prayer Song.wav
Pre-gap length 0:00:02.46
Peak level 100.0 %
Extraction speed 6.9 X
Track quality 100.0 %
Test CRC 1E3CEBC0
Copy CRC 1E3CEBC0
Accurately ripped (confidence 2) [78755BF9] (AR v2)
Copy OK
Track 7
Filename F:\Renaud Garcia-Fons & Derya Turkan (2014) [FLAC] {e-motive records EMO141}\07 - Konstantinoupoli Reflections.wav
Pre-gap length 0:00:01.00
Peak level 99.4 %
Extraction speed 6.9 X
Track quality 100.0 %
Test CRC 1D3FD17A
Copy CRC 1D3FD17A
Accurately ripped (confidence 2) [FB9DE4CE] (AR v2)
Copy OK
Track 8
Filename F:\Renaud Garcia-Fons & Derya Turkan (2014) [FLAC] {e-motive records EMO141}\08 - Dokuz Sekiz.wav
Pre-gap length 0:00:01.00
Peak level 100.0 %
Extraction speed 6.6 X
Track quality 100.0 %
Test CRC E0BCCF19
Copy CRC E0BCCF19
Accurately ripped (confidence 2) [A7F752D1] (AR v2)
Copy OK
Track 9
Filename F:\Renaud Garcia-Fons & Derya Turkan (2014) [FLAC] {e-motive records EMO141}\09 - Camino de Sed.wav
Pre-gap length 0:00:01.00
Peak level 99.0 %
Extraction speed 7.2 X
Track quality 100.0 %
Test CRC 955C7808
Copy CRC 955C7808
Accurately ripped (confidence 2) [95CB5BEC] (AR v2)
Copy OK
Track 10
Filename F:\Renaud Garcia-Fons & Derya Turkan (2014) [FLAC] {e-motive records EMO141}\10 - Bosphorus Nostalgia.wav
Pre-gap length 0:00:02.50
Peak level 100.0 %
Extraction speed 7.4 X
Track quality 100.0 %
Test CRC E224C6A9
Copy CRC E224C6A9
Accurately ripped (confidence 2) [6BE0F5B5] (AR v2)
Copy OK
Track 11
Filename F:\Renaud Garcia-Fons & Derya Turkan (2014) [FLAC] {e-motive records EMO141}\11 - Nishapur.wav
Pre-gap length 0:00:02.00
Peak level 98.9 %
Extraction speed 7.1 X
Track quality 100.0 %
Test CRC 544BE2A4
Copy CRC 544BE2A4
Accurately ripped (confidence 2) [F9B61F3D] (AR v2)
Copy OK
Track 12
Filename F:\Renaud Garcia-Fons & Derya Turkan (2014) [FLAC] {e-motive records EMO141}\12 - Beautiful House in Bad Homburg.wav
Pre-gap length 0:00:02.00
Peak level 99.2 %
Extraction speed 8.0 X
Track quality 100.0 %
Test CRC 4F5EE3DF
Copy CRC 4F5EE3DF
Accurately ripped (confidence 2) [ABCBD108] (AR v2)
Copy OK
Track 13
Filename F:\Renaud Garcia-Fons & Derya Turkan (2014) [FLAC] {e-motive records EMO141}\13 - Lamentos.wav
Pre-gap length 0:00:01.00
Peak level 100.0 %
Extraction speed 8.7 X
Track quality 100.0 %
Test CRC BE68BDDC
Copy CRC BE68BDDC
Accurately ripped (confidence 2) [C60AB4E9] (AR v2)
Copy OK
Track 14
Filename F:\Renaud Garcia-Fons & Derya Turkan (2014) [FLAC] {e-motive records EMO141}\14 - Taksim Clouds.wav
Peak level 100.0 %
Extraction speed 8.5 X
Track quality 100.0 %
Test CRC 5CA05682
Copy CRC 5CA05682
Accurately ripped (confidence 2) [CF3A72F1] (AR v2)
Copy OK
All tracks accurately ripped
No errors occurred
End of status report
==== Log checksum BC15E25B773814D5EA0C3315A87E3434A2BAD59806CD26CA97ACD05C19C88349 ====
 
Содержание индексной карты (.CUE)
REM GENRE World
REM DATE 2014
REM DISCID B40D440E
REM COMMENT "ExactAudioCopy v1.0b3"
PERFORMER "Renaud Garcia-Fons & Derya Turkan"
TITLE "Silk Moon"
FILE "01 - Silk Moon.wav" WAVE
TRACK 01 AUDIO
TITLE "Silk Moon"
PERFORMER "Renaud Garcia-Fons & Derya Turkan"
INDEX 01 00:00:00
TRACK 02 AUDIO
TITLE "A girl from Istanbul"
PERFORMER "Renaud Garcia-Fons & Derya Turkan"
INDEX 00 03:38:05
FILE "02 - A girl from Istanbul.wav" WAVE
INDEX 01 00:00:00
TRACK 03 AUDIO
TITLE "Istanbul'da bir Ispanyol"
PERFORMER "Renaud Garcia-Fons & Derya Turkan"
INDEX 00 05:00:43
FILE "03 - Istanbul'da bir Ispanyol.wav" WAVE
INDEX 01 00:00:00
TRACK 04 AUDIO
TITLE "Kaman Tche"
PERFORMER "Renaud Garcia-Fons & Derya Turkan"
INDEX 00 04:58:08
FILE "04 - Kaman Tche.wav" WAVE
INDEX 01 00:00:00
FILE "05 - Bahar Zamani.wav" WAVE
TRACK 05 AUDIO
TITLE "Bahar Zamani"
PERFORMER "Renaud Garcia-Fons & Derya Turkan"
INDEX 01 00:00:00
TRACK 06 AUDIO
TITLE "Prayer Song"
PERFORMER "Renaud Garcia-Fons & Derya Turkan"
INDEX 00 02:56:68
FILE "06 - Prayer Song.wav" WAVE
INDEX 01 00:00:00
TRACK 07 AUDIO
TITLE "Konstantinoupoli Reflections"
PERFORMER "Renaud Garcia-Fons & Derya Turkan"
INDEX 00 05:10:25
FILE "07 - Konstantinoupoli Reflections.wav" WAVE
INDEX 01 00:00:00
TRACK 08 AUDIO
TITLE "Dokuz Sekiz"
PERFORMER "Renaud Garcia-Fons & Derya Turkan"
INDEX 00 03:35:47
FILE "08 - Dokuz Sekiz.wav" WAVE
INDEX 01 00:00:00
TRACK 09 AUDIO
TITLE "Camino de Sed"
PERFORMER "Renaud Garcia-Fons & Derya Turkan"
INDEX 00 02:26:39
FILE "09 - Camino de Sed.wav" WAVE
INDEX 01 00:00:00
TRACK 10 AUDIO
TITLE "Bosphorus Nostalgia"
PERFORMER "Renaud Garcia-Fons & Derya Turkan"
INDEX 00 03:30:20
FILE "10 - Bosphorus Nostalgia.wav" WAVE
INDEX 01 00:00:00
TRACK 11 AUDIO
TITLE "Nishapur"
PERFORMER "Renaud Garcia-Fons & Derya Turkan"
INDEX 00 03:03:56
FILE "11 - Nishapur.wav" WAVE
INDEX 01 00:00:00
TRACK 12 AUDIO
TITLE "Beautiful House in Bad Homburg"
PERFORMER "Renaud Garcia-Fons & Derya Turkan"
INDEX 00 02:18:28
FILE "12 - Beautiful House in Bad Homburg.wav" WAVE
INDEX 01 00:00:00
TRACK 13 AUDIO
TITLE "Lamentos"
PERFORMER "Renaud Garcia-Fons & Derya Turkan"
INDEX 00 04:17:28
FILE "13 - Lamentos.wav" WAVE
INDEX 01 00:00:00
FILE "14 - Taksim Clouds.wav" WAVE
TRACK 14 AUDIO
TITLE "Taksim Clouds"
PERFORMER "Renaud Garcia-Fons & Derya Turkan"
INDEX 01 00:00:00
... релизы с участием RENAUD GARCÍA-FONS на трекере ...
18:51
628
Нет комментариев. Ваш будет первым!