Поиск

(World Fusion) [CD] Noahlewis' Mahlon Taits - Sitting on Bottom of the World - 2003, FLAC (image+.cue), lossless

(World Fusion) [CD] Noahlewis' Mahlon Taits - Sitting on Bottom of the World - 2003, FLAC (image+.cue), lossless
Треклист:
Noahlewis' Mahlon Taits - Sitting on Bottom of the World
Жанр: World Fusion
Носитель: CD
Страна-производитель диска (релиза): Япония
Год издания: 2003
Издатель (лейбл): Nowgomix Records/Suzak Musik
Номер по каталогу: NGCA-1011
Аудиокодек: FLAC (*.flac)
Тип рипа: image+.cue
Битрейт аудио: lossless
Продолжительность: 34:23
Источник (релизер): диск из моей коллекции
Наличие сканов в содержимом раздачи: да
Треклист:
01. Frenesi (Dominguez) - 2:27
02. Ferry Boat Serenade (Muller) - 2:37
03. Tenderly (Lawrence-Gross) - 2:17
04. The Breeze and I (Lecuona-Stillman) - 3:59
05. Hoalied (Abe) - 2:03
06. Drifting Heart (Berry) - 5:44
07. Parlor Interlude (Noahlewis' Mahlon Taits) - 0:49
08. Music Dept. Song (Doane) - 2:55
09. Farewell to Cheyenne (Morricone) - 3:28
10. Dr. Kaplan's Office (Spector) - 2:03
11. Some These Days (Patton) - 6:01
Состав:
Bo Suzuki, Koya Abe, Ryo Takematsu, Tomoaki Oshima, Fumiya Morita, Midori Sato, Yoriko Matsumoto, Sohichiro Suzuki
Recorded at Shimokitazawa Noahlewis' Records.
 
Лог создания рипа
Exact Audio Copy V1.0 beta 6 from 9. April 2015
EAC extraction logfile from 16. June 2015, 21:56
Noahlewis' Mahlon Taits / Sitting on Bottom of the World
Used drive : ASUS DRW-24B1LT Adapter: 1 ID: 1
Read mode : Secure
Utilize accurate stream : Yes
Defeat audio cache : Yes
Make use of C2 pointers : No
Read offset correction : 6
Overread into Lead-In and Lead-Out : No
Fill up missing offset samples with silence : Yes
Delete leading and trailing silent blocks : No
Null samples used in CRC calculations : Yes
Used interface : Native Win32 interface for Win NT & 2000
Used output format : User Defined Encoder
Selected bitrate : 768 kBit/s
Quality : High
Add ID3 tag : No
Command line compressor : C:\Program Files\Exact Audio Copy\Flac\flac.exe
Additional command line options : -8 -V -T "ARTIST=%artist%" -T "TITLE=%title%" -T "ALBUM=%albumtitle%" -T "DATE=%year%" -T "TRACKNUMBER=%tracknr%" -T "TOTALTRACKS=%numtracks%" -T "GENRE=%genre%" -T "ALBUMARTIST=%albumartist%" -T "ALBUM ARTIST=%albumartist%" -T "COMMENT=EAC Secure Mode, Test & Copy, AccurateRip, FLAC -8" %source%
TOC of the extracted CD
Track | Start | Length | Start sector | End sector
---------------------------------------------------------
1 | 0:00.00 | 2:26.70 | 0 | 11019
2 | 2:26.70 | 2:37.25 | 11020 | 22819
3 | 5:04.20 | 2:17.15 | 22820 | 33109
4 | 7:21.35 | 3:58.65 | 33110 | 51024
5 | 11:20.25 | 2:02.67 | 51025 | 60241
6 | 13:23.17 | 5:43.60 | 60242 | 86026
7 | 19:07.02 | 0:48.63 | 86027 | 89689
8 | 19:55.65 | 2:55.10 | 89690 | 102824
9 | 22:51.00 | 3:28.20 | 102825 | 118444
10 | 26:19.20 | 2:03.27 | 118445 | 127696
11 | 28:22.47 | 6:00.55 | 127697 | 154751
Range status and errors
Selected range
Filename F:\audio\Noahlewis' Mahlon Taits - Sitting on Bottom of the World.wav
Peak level 100.0 %
Extraction speed 4.9 X
Range quality 99.9 %
Test CRC 2402089C
Copy CRC 2402089C
Copy OK
No errors occurred
AccurateRip summary
Track 1 accurately ripped (confidence 1) [90C6BB30] (AR v2)
Track 2 accurately ripped (confidence 1) [73238DBB] (AR v2)
Track 3 accurately ripped (confidence 1) [4896DDBD] (AR v2)
Track 4 accurately ripped (confidence 1) [C800E5DA] (AR v2)
Track 5 accurately ripped (confidence 1) [F0B58A85] (AR v2)
Track 6 accurately ripped (confidence 1) [8262B00F] (AR v2)
Track 7 accurately ripped (confidence 1) [5624EE71] (AR v2)
Track 8 accurately ripped (confidence 1) [601EEACF] (AR v2)
Track 9 accurately ripped (confidence 1) [3DA836CF] (AR v2)
Track 10 accurately ripped (confidence 1) [14FBD45E] (AR v2)
Track 11 accurately ripped (confidence 1) [F949653F] (AR v2)
All tracks accurately ripped
End of status report
---- CUETools DB Plugin V2.1.6
[CTDB TOCID: k_ZUpjKyKlsQmr1YgK6JJRQi38k-] disk not present in database
Submit result: k_ZUpjKyKlsQmr1YgK6JJRQi38k- has been uploaded
==== Log checksum 6366D9956BF46089050BBB1E3D0CBA97ADBE23B080A4531D0B6CEB2B828E2757 ====
 
Содержание индексной карты (.CUE)
REM GENRE Jazz
REM DATE 2003
REM DISCID 8A080F0B
REM COMMENT "ExactAudioCopy v1.0b6"
PERFORMER "Noahlewis' Mahlon Taits"
TITLE "Sitting on Bottom of the World"
FILE "Noahlewis' Mahlon Taits - Sitting on Bottom of the World.wav" WAVE
TRACK 01 AUDIO
TITLE "Frenesi"
PERFORMER "Noahlewis' Mahlon Taits"
INDEX 01 00:00:00
TRACK 02 AUDIO
TITLE "Ferry Boat Serenade"
PERFORMER "Noahlewis' Mahlon Taits"
INDEX 01 02:26:70
TRACK 03 AUDIO
TITLE "Tenderly"
PERFORMER "Noahlewis' Mahlon Taits"
INDEX 01 05:04:20
TRACK 04 AUDIO
TITLE "The Breeze and I"
PERFORMER "Noahlewis' Mahlon Taits"
INDEX 01 07:21:35
TRACK 05 AUDIO
TITLE "Hoalied"
PERFORMER "Noahlewis' Mahlon Taits"
INDEX 01 11:20:25
TRACK 06 AUDIO
TITLE "Drifting Heart"
PERFORMER "Noahlewis' Mahlon Taits"
INDEX 01 13:23:17
TRACK 07 AUDIO
TITLE "Parlor Interlude"
PERFORMER "Noahlewis' Mahlon Taits"
INDEX 01 19:07:02
TRACK 08 AUDIO
TITLE "Music Dept. Song"
PERFORMER "Noahlewis' Mahlon Taits"
INDEX 00 19:54:20
INDEX 01 19:55:65
TRACK 09 AUDIO
TITLE "Farewell to Cheyenne"
PERFORMER "Noahlewis' Mahlon Taits"
INDEX 01 22:51:00
TRACK 10 AUDIO
TITLE "Dr. Kaplan's Office"
PERFORMER "Noahlewis' Mahlon Taits"
INDEX 01 26:19:20
TRACK 11 AUDIO
TITLE "Some These Days"
PERFORMER "Noahlewis' Mahlon Taits"
INDEX 01 28:22:47
 
Отчет CUETools
[CUETools log; Date: 17.06.2015 22:15:01; Version: 2.1.5]
[CTDB TOCID: k_ZUpjKyKlsQmr1YgK6JJRQi38k-] found.
Track | CTDB Status
1 | (1/1) Accurately ripped
2 | (1/1) Accurately ripped
3 | (1/1) Accurately ripped
4 | (1/1) Accurately ripped
5 | (1/1) Accurately ripped
6 | (1/1) Accurately ripped
7 | (1/1) Accurately ripped
8 | (1/1) Accurately ripped
9 | (1/1) Accurately ripped
10 | (1/1) Accurately ripped
11 | (1/1) Accurately ripped
[AccurateRip ID: 000d1635-0072e929-8a080f0b] found.
Track [ CRC | V2 ] Status
01 [fcf70a17|90c6bb30] (0+1/1) Accurately ripped
02 [20294c75|73238dbb] (0+1/1) Accurately ripped
03 [63319c8e|4896ddbd] (0+1/1) Accurately ripped
04 [615679f0|c800e5da] (0+1/1) Accurately ripped
05 [2d51075e|f0b58a85] (0+1/1) Accurately ripped
06 [204679dd|8262b00f] (0+1/1) Accurately ripped
07 [a9364e90|5624ee71] (0+1/1) Accurately ripped
08 [2beefac6|601eeacf] (0+1/1) Accurately ripped
09 [9c8247cb|3da836cf] (0+1/1) Accurately ripped
10 [8d8103b4|14fbd45e] (0+1/1) Accurately ripped
11 [42ab62f8|f949653f] (0+1/1) Accurately ripped
Track Peak [ CRC32 ] [W/O NULL] [ LOG ]
-- 100,0 [2402089C] [2515B6FC] CRC32
01 100,0 [D1AC00B3] [1CF5AE4F]
02 100,0 [4B83E2F8] [43404672]
03 88,7 [E91F6810] [A333F823]
04 95,5 [ED846E63] [99B89227]
05 86,7 [00D7F5C1] [2DD99673]
06 95,7 [BD15C8D5] [A2A4F019]
07 100,0 [25426314] [5A6852FE]
08 94,9 [8A0B0281] [E5086046]
09 93,8 [8D5E58F4] [BAB24460]
10 92,0 [F9BC8266] [65783768]
11 84,8 [D0A23A38] [2F135BA0]
19:05
223
Нет комментариев. Ваш будет первым!