Поиск

(World Fusion) [CD] Lloyd Miller - A Lifetime in Oriental Jazz - 2009, FLAC (tracks+.cue), lossless

(World Fusion) [CD] Lloyd Miller - A Lifetime in Oriental Jazz - 2009, FLAC (tracks+.cue), lossless
Треклист:
Lloyd Miller - A Lifetime in Oriental Jazz
Жанр: World Fusion
Носитель: CD
Страна-производитель диска (релиза): Великобритания
Год издания: 2009
Издатель (лейбл): Jazzman
Номер по каталогу: JMANCD 028
Аудиокодек: FLAC (*.flac)
Тип рипа: tracks+.cue
Битрейт аудио: lossless
Продолжительность: 78:39
Источник (релизер): david62442 (what)
Наличие сканов в содержимом раздачи: нет
Треклист:
01. Gol-e Gandom (Wheat Flowers) (4:08)
02. Gozel Guzler (Amber Eyes) (3:58)
03. Le Grand Bidou (5:14)
04. Bizz-aire (2:37)
05. Gozel Guzler (version II) (4:48)
06. Gol-e Gandom (version II) (3:47)
07. Indo-European Improvisations (12:34)
08. Hue Wail (2:43)
09. Chant Inca (4:00)
10. Impressions of Bhairava Raga (4:20)
11. Khamaj (9:25)
12. Gol-e Gandom (version III) (8:55)
13. Impressions of Bhairavi Raga (3:47)
14. Shur Thing (8:23)
 
Лог создания рипа
Exact Audio Copy V0.99 prebeta 5 from 4. May 2009
EAC extraction logfile from 20. January 2010, 20:58
Lloyd Miller / A Lifetime In Oriental Jazz
Used drive : HL-DT-STDVDRAM GH22NS40 Adapter: 0 ID: 1
Read mode : Secure
Utilize accurate stream : Yes
Defeat audio cache : Yes
Make use of C2 pointers : No
Read offset correction : 667
Overread into Lead-In and Lead-Out : No
Fill up missing offset samples with silence : Yes
Delete leading and trailing silent blocks : No
Null samples used in CRC calculations : Yes
Used interface : Installed external ASPI interface
Gap handling : Appended to previous track
Used output format : User Defined Encoder
Selected bitrate : 320 kBit/s
Quality : High
Add ID3 tag : No
Command line compressor : C:\Program Files\Exact Audio Copy\Flac\flac.exe
Additional command line options : -V -8 -T "artist=%a" -T "title=%t" -T "album=%g" -T "date=%y" -T "tracknumber=%n" -T "genre=%m" %s
TOC of the extracted CD
Track | Start | Length | Start sector | End sector
---------------------------------------------------------
1 | 0:00.00 | 4:08.03 | 0 | 18602
2 | 4:08.03 | 3:58.16 | 18603 | 36468
3 | 8:06.19 | 5:14.02 | 36469 | 60020
4 | 13:20.21 | 2:37.18 | 60021 | 71813
5 | 15:57.39 | 4:48.14 | 71814 | 93427
6 | 20:45.53 | 3:47.23 | 93428 | 110475
7 | 24:33.01 | 12:33.73 | 110476 | 167023
8 | 37:06.74 | 2:43.37 | 167024 | 179285
9 | 39:50.36 | 4:00.21 | 179286 | 197306
10 | 43:50.57 | 4:19.68 | 197307 | 216799
11 | 48:10.50 | 9:24.41 | 216800 | 259140
12 | 57:35.16 | 8:55.01 | 259141 | 299266
13 | 66:30.17 | 3:46.74 | 299267 | 316290
14 | 70:17.16 | 8:22.58 | 316291 | 353998
Track 1
Filename C:\EACrips\ Lloyd Miller - 2009 - A Lifetime In Oriental Jazz\01 - Lloyd Miller - Gol-E Gandom.wav
Pre-gap length 0:00:02.00
Peak level 98.8 %
Track quality 99.9 %
Test CRC BF7B771D
Copy CRC BF7B771D
Track not present in AccurateRip database
Copy OK
Track 2
Filename C:\EACrips\ Lloyd Miller - 2009 - A Lifetime In Oriental Jazz\02 - Lloyd Miller - Gozel Guzler.wav
Pre-gap length 0:00:01.58
Peak level 98.8 %
Track quality 100.0 %
Test CRC FBAF6052
Copy CRC FBAF6052
Track not present in AccurateRip database
Copy OK
Track 3
Filename C:\EACrips\ Lloyd Miller - 2009 - A Lifetime In Oriental Jazz\03 - Lloyd Miller - Le Grand Bidou.wav
Pre-gap length 0:00:01.58
Peak level 98.8 %
Track quality 100.0 %
Test CRC 0C9307E4
Copy CRC 0C9307E4
Track not present in AccurateRip database
Copy OK
Track 4
Filename C:\EACrips\ Lloyd Miller - 2009 - A Lifetime In Oriental Jazz\04 - Lloyd Miller - Bizz-Aire.wav
Pre-gap length 0:00:01.57
Peak level 98.8 %
Track quality 100.0 %
Test CRC F5324A9F
Copy CRC F5324A9F
Track not present in AccurateRip database
Copy OK
Track 5
Filename C:\EACrips\ Lloyd Miller - 2009 - A Lifetime In Oriental Jazz\05 - Lloyd Miller - Gozel Guzler (Version 2).wav
Pre-gap length 0:00:01.57
Peak level 98.8 %
Track quality 100.0 %
Test CRC 90005A70
Copy CRC 90005A70
Track not present in AccurateRip database
Copy OK
Track 6
Filename C:\EACrips\ Lloyd Miller - 2009 - A Lifetime In Oriental Jazz\06 - Lloyd Miller - Gol-E Gandom (Version 2).wav
Pre-gap length 0:00:01.57
Peak level 98.8 %
Track quality 100.0 %
Test CRC 04F3D3D7
Copy CRC 04F3D3D7
Track not present in AccurateRip database
Copy OK
Track 7
Filename C:\EACrips\ Lloyd Miller - 2009 - A Lifetime In Oriental Jazz\07 - Lloyd Miller - Indo-European Improvisations.wav
Peak level 98.8 %
Track quality 100.0 %
Test CRC 30196929
Copy CRC 30196929
Track not present in AccurateRip database
Copy OK
Track 8
Filename C:\EACrips\ Lloyd Miller - 2009 - A Lifetime In Oriental Jazz\08 - Lloyd Miller - Hue Wail.wav
Pre-gap length 0:00:01.57
Peak level 98.8 %
Track quality 100.0 %
Test CRC 8B21EAD9
Copy CRC 8B21EAD9
Track not present in AccurateRip database
Copy OK
Track 9
Filename C:\EACrips\ Lloyd Miller - 2009 - A Lifetime In Oriental Jazz\09 - Lloyd Miller - Chant Inca.wav
Pre-gap length 0:00:02.57
Peak level 98.8 %
Track quality 100.0 %
Test CRC 3F1C4FA5
Copy CRC 3F1C4FA5
Track not present in AccurateRip database
Copy OK
Track 10
Filename C:\EACrips\ Lloyd Miller - 2009 - A Lifetime In Oriental Jazz\10 - Lloyd Miller - Impressions Of Bhairava Raga.wav
Pre-gap length 0:00:02.76
Peak level 96.5 %
Track quality 100.0 %
Test CRC B9325A34
Copy CRC B9325A34
Track not present in AccurateRip database
Copy OK
Track 11
Filename C:\EACrips\ Lloyd Miller - 2009 - A Lifetime In Oriental Jazz\11 - Lloyd Miller - Khamaj.wav
Pre-gap length 0:00:01.57
Peak level 98.8 %
Track quality 100.0 %
Test CRC 70917F2A
Copy CRC 70917F2A
Track not present in AccurateRip database
Copy OK
Track 12
Filename C:\EACrips\ Lloyd Miller - 2009 - A Lifetime In Oriental Jazz\12 - Lloyd Miller - Gol-E Gandom (Version 3).wav
Peak level 98.8 %
Track quality 100.0 %
Test CRC 1058F37E
Copy CRC 1058F37E
Track not present in AccurateRip database
Copy OK
Track 13
Filename C:\EACrips\ Lloyd Miller - 2009 - A Lifetime In Oriental Jazz\13 - Lloyd Miller - Impressions Of Bhairavi Raga.wav
Pre-gap length 0:00:01.57
Peak level 98.8 %
Track quality 100.0 %
Test CRC 0391F840
Copy CRC 0391F840
Track not present in AccurateRip database
Copy OK
Track 14
Filename C:\EACrips\ Lloyd Miller - 2009 - A Lifetime In Oriental Jazz\14 - Lloyd Miller - Shur Thing.wav
Pre-gap length 0:00:01.58
Peak level 98.8 %
Track quality 99.9 %
Test CRC 045780E2
Copy CRC 045780E2
Track not present in AccurateRip database
Copy OK
None of the tracks are present in the AccurateRip database
No errors occurred
End of status report
 
Содержание индексной карты (.CUE)
REM GENRE Jazz
REM DATE 2009
REM COMMENT "CUETools generated dummy CUE sheet"
PERFORMER "Lloyd Miller"
TITLE "A Lifetime in Oriental Jazz"
FILE "01 - Gol-e Gandom (Wheat Flowers).wav" WAVE
TRACK 01 AUDIO
TITLE "Gol-e Gandom (Wheat Flowers)"
PERFORMER "Lloyd Miller"
INDEX 01 00:00:00
FILE "02 - Gozel Guzler (Amber Eyes).wav" WAVE
TRACK 02 AUDIO
TITLE "Gozel Guzler (Amber Eyes)"
PERFORMER "Lloyd Miller"
INDEX 01 00:00:00
FILE "03 - Le Grand Bidou.wav" WAVE
TRACK 03 AUDIO
TITLE "Le Grand Bidou"
PERFORMER "Lloyd Miller"
INDEX 01 00:00:00
FILE "04 - Bizz-aire.wav" WAVE
TRACK 04 AUDIO
TITLE "Bizz-aire"
PERFORMER "Lloyd Miller"
INDEX 01 00:00:00
FILE "05 - Gozel Guzler (version II).wav" WAVE
TRACK 05 AUDIO
TITLE "Gozel Guzler (version II)"
PERFORMER "Lloyd Miller"
INDEX 01 00:00:00
FILE "06 - Gol-e Gandom (version II).wav" WAVE
TRACK 06 AUDIO
TITLE "Gol-e Gandom (version II)"
PERFORMER "Lloyd Miller"
INDEX 01 00:00:00
FILE "07 - Indo-European Improvisations.wav" WAVE
TRACK 07 AUDIO
TITLE "Indo-European Improvisations"
PERFORMER "Lloyd Miller"
INDEX 01 00:00:00
FILE "08 - Hue Wail.wav" WAVE
TRACK 08 AUDIO
TITLE "Hue Wail"
PERFORMER "Lloyd Miller"
INDEX 01 00:00:00
FILE "09 - Chant Inca.wav" WAVE
TRACK 09 AUDIO
TITLE "Chant Inca"
PERFORMER "Lloyd Miller"
INDEX 01 00:00:00
FILE "10 - Impressions of Bhairava Raga.wav" WAVE
TRACK 10 AUDIO
TITLE "Impressions of Bhairava Raga"
PERFORMER "Lloyd Miller"
INDEX 01 00:00:00
FILE "11 - Khamaj.wav" WAVE
TRACK 11 AUDIO
TITLE "Khamaj"
PERFORMER "Lloyd Miller"
INDEX 01 00:00:00
FILE "12 - Gol-e Gandom (version III).wav" WAVE
TRACK 12 AUDIO
TITLE "Gol-e Gandom (version III)"
PERFORMER "Lloyd Miller"
INDEX 01 00:00:00
FILE "13 - Impressions of Bhairavi Raga.wav" WAVE
TRACK 13 AUDIO
TITLE "Impressions of Bhairavi Raga"
PERFORMER "Lloyd Miller"
INDEX 01 00:00:00
FILE "14 - Shur Thing.wav" WAVE
TRACK 14 AUDIO
TITLE "Shur Thing"
PERFORMER "Lloyd Miller"
INDEX 01 00:00:00
 
Лог проверки качества
-----------------------
DON'T MODIFY THIS FILE
-----------------------
PERFORMER: auCDtect Task Manager, ver. 1.6.0 RC1 build 1.6.0.1
Copyright (c) 2008-2010 y-soft. All rights reserved
http://y-soft.org
ANALYZER: auCDtect: CD records authenticity detector, version 0.8.2
Copyright (c) 2004 Oleg Berngardt. All rights reserved.
Copyright (c) 2004 Alexander Djourik. All rights reserved.
FILE: 14 - Shur Thing.flac
Size: 54229872 Hash: 4317666DE83B3B31B05A6B6B7012B9B4 Accuracy: -m0
Conclusion: CDDA 100%
Signature: D31B1177F5E16A5F27285C601BDC969CF74DA43B
FILE: 13 - Impressions of Bhairavi Raga.flac
Size: 18844109 Hash: 6E23E117075F3985B2B83706516B6AE2 Accuracy: -m0
Conclusion: ???
Signature: 5833013141D35A20DFC01B817208519E559BB050
FILE: 12 - Gol-e Gandom (version III).flac
Size: 62675387 Hash: A5790EB1049E709CB67F77A8C79B3B13 Accuracy: -m0
Conclusion: CDDA 100%
Signature: A8B518EB15CEC7BF4F24155E313C64E22C511883
FILE: 11 - Khamaj.flac
Size: 45402254 Hash: F13F78339201E32E2A1D04EB41106006 Accuracy: -m0
Conclusion: ???
Signature: 18126BD4D28AF4E374846E76080F74D85259416D
FILE: 10 - Impressions of Bhairava Raga.flac
Size: 17175811 Hash: 6CD760AA2BCF38CA8EC41A99664D695B Accuracy: -m0
Conclusion: CDDA 100%
Signature: 213300906B45D891F1D6EC80C470D54B6FCD38DB
FILE: 09 - Chant Inca.flac
Size: 25928486 Hash: DC644BE25990CBAE2A768F3905B99406 Accuracy: -m0
Conclusion: CDDA 100%
Signature: C9861E3C3AA368E83555EF40489E040A6C74E4D8
FILE: 08 - Hue Wail.flac
Size: 13487725 Hash: 4A06338BDB5C42BCEEB7153C13E9F56A Accuracy: -m0
Conclusion: ???
Signature: 008FC32614AB877BE3FE2706CEFA9ED9C366B63D
FILE: 07 - Indo-European Improvisations.flac
Size: 72256052 Hash: D6D7AFE96835B8590EBC67FACFE7C9F3 Accuracy: -m0
Conclusion: CDDA 99%
Signature: B57F46E035346A35F23F8DE6F766EDBC48871404
FILE: 06 - Gol-e Gandom (version II).flac
Size: 20337920 Hash: 95DCB98A6DB036F37902B569871A1757 Accuracy: -m0
Conclusion: MPEG 95%
Signature: C7028EF34033F6072DDE9205CF33526079075E56
FILE: 05 - Gozel Guzler (version II).flac
Size: 28235360 Hash: F70A36ACC083988A59D4E81739F1E21D Accuracy: -m0
Conclusion: CDDA 100%
Signature: 5608425F6E73AA542FC98549D5FE26E552748238
FILE: 04 - Bizz-aire.flac
Size: 18621213 Hash: 20590C08EBDE7C48CF4D2F7FA3420B41 Accuracy: -m0
Conclusion: CDDA 100%
Signature: 1724B089541EB1704E2004E2ADEE690A7C114878
FILE: 03 - Le Grand Bidou.flac
Size: 33804057 Hash: E4DF82796146277C90A69D3E21E683CD Accuracy: -m0
Conclusion: CDDA 100%
Signature: 820F7FEFCFC2C198B8D4C61BD581D6B623BA3F6D
FILE: 02 - Gozel Guzler (Amber Eyes).flac
Size: 23976359 Hash: 2E2A46217764851DCEDD8E8E07AAC753 Accuracy: -m0
Conclusion: CDDA 100%
Signature: 1063196BCF6A41BF304455EBC8BFFAAB1CF08A8D
FILE: 01 - Gol-e Gandom (Wheat Flowers).flac
Size: 29549004 Hash: C23BCE0119D60341DEFB05881A7B48BA Accuracy: -m0
Conclusion: CDDA 100%
Signature: B07C3DCEE56BE56774E825D9BD811D51DE828CB9
 
Об альбоме (сборнике)
Lloyd Miller is one of the coolest and most innovative cats that you've probably never heard of. Move over Yusef Lateef, Joe Henderson or just about anybody out there who you think of as an innovator for combining Jazz with Eastern elements. Before it became 'a thing,' Lloyd Miller fused real Jazz with Asian sounds. During his extraordinary life, Miller has been an extensive world traveler, multi-instrumentalist on dozens of exotic and Western instruments, fluent in multiple languages and at one point, he was even the host of a Jazz program on Iranian television. Miller didn't just have a curiosity for things Oriental, he lived in Iran for years, studying Persian music. The strangest part of Miller's story may be that he's a Mormon who made Utah of all places his base of musical operations. While Lloyd Miller has released dozens of albums, none were through big labels. It's not until very recently that most of us have even had a chance to know about the work of the Ethnomusicologist Jazzman. Introducing "A Lifetime in Oriental Jazz." This is a compilation of highlights harvested from the Miller archives. While the time line ranges from 1961 to 2005, most of these recordings are from the early 60s. 'Gol-e Gandom' starts like a piece of classical Persian music. Before long, the composition is taken over by a straight Jazz quartet that soon incorporates the beautiful sounds of the santur. 'Gözel Güzler' is threaded with a clarinet that imitates the Turkish zurna. 'Bizz-Aire' is bop that features the African balafon. Utilizing multitrack technologies, Miller plays half a dozen instruments on version two of 'Gol-e Gandom.' Beginning with tablas and Indian chanting, 'Indo-European Improvisations' is a twelve minute piece with lovely piano work that plays well with the santur. As with most of this music -it embraces an element of the exotic yet it still swings. Moving further East, 'Hue Wail' features Miller on a Vietnamese plucked zither called the dàn tranh. While 'Chant Inca' moves into Africa, the musical landscape shifts to India for 'Impressions of Bhairava Raga' and 'Khamaj Curry.' While "A Lifetime in Oriental Jazz" features plenty of improvisation and modal exploration, the result is always listenable. This music is sure to resonate with listeners that have an interest in both World Music and vintage Jazz. Indeed, Miller does not play Martin Denny style Exotica; this is serious Jazz with an open mind. While Miller is a worldly man who channeled so much of the planet through him, his work has until now been inaccessible to much of the world. As if unburying some unknown treasure along the Silk Road, listen to "A Lifetime in Oriental Jazz" and discover the music of Lloyd Miller.
-- Delite Rancher
CUE самодельный.
21:20
277
Нет комментариев. Ваш будет первым!