Поиск

(World Fusion) [CD] Lalo Schifrin - Gypsies (1978) - 2014, FLAC (tracks+.cue), lossless

(World Fusion) [CD] Lalo Schifrin - Gypsies (1978) - 2014, FLAC (tracks+.cue), lossless
Lalo Schifrin - Gypsies (1978)
Жанр: World Fusion
Носитель: CD
Год издания: 2014
Издатель (лейбл): Tabu/Demon
Номер по каталогу: TABU 1037
Аудиокодек: FLAC (*.flac)
Тип рипа: tracks+.cue
Битрейт аудио: lossless
Продолжительность: 50:28
Rip by JET 1
Наличие сканов в содержимом раздачи: да
Треклист:
01. To Cast A Spell (5:44)
02. King Of Hearts (5:18)
03. Moonlight Gypsies (4:59)
04. Fortune Tellers (4:44)
05. Gauchos (5:37)
06. Pampas (5:35)
07. Prophecy Of Love (3:42)
08. Ring Around The Moon (5:27)
09. Moonlight Gypsies [Radio Version] (3:12)
10. Fortune Tellers [Radio Version] (3:05)
11. Prophecy Of Love [Radio Version] (3:05)
 
 
Состав
Lalo Schifrin - piano, keyboards, synthesizer, arranger, conductor
Oscar Brashear, Bobby Bryant - trumpet
Charles Loper, Lew McCreary - trombone
Anthony Ortega, Ernie Watts, Don Menza - woodwinds
Mike Melvoin - keyboards
Ian Underwood - synthesizer
Dean Parks - guitar
Abraham Laboriel - electric bass
Jim Keltner - drums
Emil Richards, Paulinho Da Costa - percussion
 
 
Лог создания рипа
Exact Audio Copy V1.0 beta 3 from 29. August 2011
EAC extraction logfile from 17. April 2015, 18:33
Lalo Schifrin / Gypsies
Used drive : GENERIC CDRCB05 Adapter: 4 ID: 0
Read mode : Secure
Utilize accurate stream : Yes
Defeat audio cache : Yes
Make use of C2 pointers : No
Read offset correction : 102
Overread into Lead-In and Lead-Out : No
Fill up missing offset samples with silence : Yes
Delete leading and trailing silent blocks : No
Null samples used in CRC calculations : Yes
Used interface : Native Win32 interface for Win NT & 2000
Gap handling : Appended to previous track
Used output format : User Defined Encoder
Selected bitrate : 1024 kBit/s
Quality : High
Add ID3 tag : No
Command line compressor : C:\Program Files\FLAC\flac.exe
Additional command line options : -8 -V -T "ARTIST=%artist%" -T "TITLE=%title%" -T "ALBUM=%albumtitle%" -T "DATE=%year%" -T "TRACKNUMBER=%tracknr%" -T "GENRE=%genre%" -T "PERFORMER=%albuminterpret%" -T "COMPOSER=%composer%" %haslyrics%--tag-from-file=LYRICS="%lyricsfile%"%haslyrics% -T "ALBUMARTIST=%albumartist%" -T "DISCNUMBER=%cdnumber%" -T "TOTALDISCS=%totalcds%" -T "TOTALTRACKS=%numtracks%" -T "COMMENT=%comment%" %source% -o %dest%
TOC of the extracted CD
Track | Start | Length | Start sector | End sector
---------------------------------------------------------
1 | 0:00.00 | 5:44.04 | 0 | 25803
2 | 5:44.04 | 5:17.40 | 25804 | 49618
3 | 11:01.44 | 4:58.63 | 49619 | 72031
4 | 16:00.32 | 4:44.12 | 72032 | 93343
5 | 20:44.44 | 5:37.16 | 93344 | 118634
6 | 26:21.60 | 5:34.63 | 118635 | 143747
7 | 31:56.48 | 3:41.72 | 143748 | 160394
8 | 35:38.45 | 5:27.28 | 160395 | 184947
9 | 41:05.73 | 3:11.56 | 184948 | 199328
10 | 44:17.54 | 3:05.02 | 199329 | 213205
11 | 47:22.56 | 3:05.04 | 213206 | 227084
Track 1
Filename H:\0\..................00\post\Lalo Schifrin - Gypsies (1978) [2014 Remaster]\01 - To Cast A Spell.wav
Pre-gap length 0:00:02.00
Peak level 99.4 %
Extraction speed 2.6 X
Track quality 100.0 %
Test CRC 4A9D88BA
Copy CRC 4A9D88BA
Track not present in AccurateRip database
Copy OK
Track 2
Filename H:\0\..................00\post\Lalo Schifrin - Gypsies (1978) [2014 Remaster]\02 - King Of Hearts.wav
Pre-gap length 0:00:01.43
Peak level 89.0 %
Extraction speed 2.9 X
Track quality 100.0 %
Test CRC EABB7C05
Copy CRC EABB7C05
Track not present in AccurateRip database
Copy OK
Track 3
Filename H:\0\..................00\post\Lalo Schifrin - Gypsies (1978) [2014 Remaster]\03 - Moonlight Gypsies.wav
Pre-gap length 0:00:02.48
Peak level 99.4 %
Extraction speed 3.1 X
Track quality 100.0 %
Test CRC D0701D08
Copy CRC D0701D08
Track not present in AccurateRip database
Copy OK
Track 4
Filename H:\0\..................00\post\Lalo Schifrin - Gypsies (1978) [2014 Remaster]\04 - Fortune Tellers.wav
Pre-gap length 0:00:00.36
Peak level 89.6 %
Extraction speed 3.0 X
Track quality 99.9 %
Test CRC 86937F79
Copy CRC 86937F79
Track not present in AccurateRip database
Copy OK
Track 5
Filename H:\0\..................00\post\Lalo Schifrin - Gypsies (1978) [2014 Remaster]\05 - Gauchos.wav
Pre-gap length 0:00:02.25
Peak level 94.0 %
Extraction speed 3.7 X
Track quality 100.0 %
Test CRC 2CA44E50
Copy CRC 2CA44E50
Track not present in AccurateRip database
Copy OK
Track 6
Filename H:\0\..................00\post\Lalo Schifrin - Gypsies (1978) [2014 Remaster]\06 - Pampas.wav
Pre-gap length 0:00:01.38
Peak level 99.4 %
Extraction speed 3.9 X
Track quality 100.0 %
Test CRC 5E7E9299
Copy CRC 5E7E9299
Track not present in AccurateRip database
Copy OK
Track 7
Filename H:\0\..................00\post\Lalo Schifrin - Gypsies (1978) [2014 Remaster]\07 - Prophecy Of Love.wav
Pre-gap length 0:00:01.53
Peak level 96.2 %
Extraction speed 3.9 X
Track quality 100.0 %
Test CRC 1F197358
Copy CRC 1F197358
Track not present in AccurateRip database
Copy OK
Track 8
Filename H:\0\..................00\post\Lalo Schifrin - Gypsies (1978) [2014 Remaster]\08 - Ring Around The Moon.wav
Pre-gap length 0:00:01.51
Peak level 99.4 %
Extraction speed 4.1 X
Track quality 100.0 %
Test CRC B170CF64
Copy CRC B170CF64
Track not present in AccurateRip database
Copy OK
Track 9
Filename H:\0\..................00\post\Lalo Schifrin - Gypsies (1978) [2014 Remaster]\09 - Moonlight Gypsies [Radio Versin].wav
Pre-gap length 0:00:03.28
Peak level 99.4 %
Extraction speed 4.0 X
Track quality 100.0 %
Test CRC 4F19CF41
Copy CRC 4F19CF41
Track not present in AccurateRip database
Copy OK
Track 10
Filename H:\0\..................00\post\Lalo Schifrin - Gypsies (1978) [2014 Remaster]\10 - Fortune Tellers [Radio Versin].wav
Pre-gap length 0:00:01.32
Peak level 92.7 %
Extraction speed 4.2 X
Track quality 100.0 %
Test CRC C5F2C078
Copy CRC C5F2C078
Track not present in AccurateRip database
Copy OK
Track 11
Filename H:\0\..................00\post\Lalo Schifrin - Gypsies (1978) [2014 Remaster]\11 - Prophecy Of Love [Radio Version].wav
Pre-gap length 0:00:01.39
Peak level 99.4 %
Extraction speed 4.2 X
Track quality 100.0 %
Test CRC 4E6B7F62
Copy CRC 4E6B7F62
Track not present in AccurateRip database
Copy OK
None of the tracks are present in the AccurateRip database
No errors occurred
End of status report
==== Log checksum 84D43B626CFAFAFA2C35A63A2DD7AB8C670E2F4BBA59823496609040EA323A68 ====
 
Содержание индексной карты (.CUE)
REM GENRE Jazz
REM DATE 1978
REM DISCID A20BD30B
REM COMMENT "ExactAudioCopy v1.0b3"
PERFORMER "Lalo Schifrin"
TITLE "Gypsies"
FILE "01 - To Cast A Spell.wav" WAVE
TRACK 01 AUDIO
TITLE "To Cast A Spell"
PERFORMER "Lalo Schifrin"
INDEX 01 00:00:00
TRACK 02 AUDIO
TITLE "King Of Hearts"
PERFORMER "Lalo Schifrin"
INDEX 00 05:42:36
FILE "02 - King Of Hearts.wav" WAVE
INDEX 01 00:00:00
TRACK 03 AUDIO
TITLE "Moonlight Gypsies"
PERFORMER "Lalo Schifrin"
INDEX 00 05:14:67
FILE "03 - Moonlight Gypsies.wav" WAVE
INDEX 01 00:00:00
TRACK 04 AUDIO
TITLE "Fortune Tellers"
PERFORMER "Lalo Schifrin"
INDEX 00 04:58:27
FILE "04 - Fortune Tellers.wav" WAVE
INDEX 01 00:00:00
TRACK 05 AUDIO
TITLE "Gauchos"
PERFORMER "Lalo Schifrin"
INDEX 00 04:41:62
FILE "05 - Gauchos.wav" WAVE
INDEX 01 00:00:00
TRACK 06 AUDIO
TITLE "Pampas"
PERFORMER "Lalo Schifrin"
INDEX 00 05:35:53
FILE "06 - Pampas.wav" WAVE
INDEX 01 00:00:00
TRACK 07 AUDIO
TITLE "Prophecy Of Love"
PERFORMER "Lalo Schifrin"
INDEX 00 05:33:10
FILE "07 - Prophecy Of Love.wav" WAVE
INDEX 01 00:00:00
TRACK 08 AUDIO
TITLE "Ring Around The Moon"
PERFORMER "Lalo Schifrin"
INDEX 00 03:40:21
FILE "08 - Ring Around The Moon.wav" WAVE
INDEX 01 00:00:00
TRACK 09 AUDIO
TITLE "Moonlight Gypsies [Radio Version]"
PERFORMER "Lalo Schifrin"
INDEX 00 05:24:00
FILE "09 - Moonlight Gypsies [Radio Version].wav" WAVE
INDEX 01 00:00:00
TRACK 10 AUDIO
TITLE "Fortune Tellers [Radio Version]"
PERFORMER "Lalo Schifrin"
INDEX 00 03:10:24
FILE "10 - Fortune Tellers [Radio Version].wav" WAVE
INDEX 01 00:00:00
TRACK 11 AUDIO
TITLE "Prophecy Of Love [Radio Version]"
PERFORMER "Lalo Schifrin"
INDEX 00 03:03:38
FILE "11 - Prophecy Of Love [Radio Version].wav" WAVE
INDEX 01 00:00:00
18:26
275
Нет комментариев. Ваш будет первым!