Вы используете незарегистрированную версию компонента "Вкладки"!

Поиск

(World Fusion) [CD] Ibrahim Maalouf - Levantine Symphony N°1 - 2018, FLAC (tracks+.cue), lossless

(World Fusion) [CD] Ibrahim Maalouf - Levantine Symphony N°1 - 2018, FLAC (tracks+.cue), lossless
Битрейт аудио:
lossless
Треклист:
Ibrahim Maalouf - Levantine Symphony N°1
Жанр: World Fusion
Носитель: CD
Год издания: 2018
Издатель (лейбл): Mi'ster Productions
Номер по каталогу: IBM22
Аудиокодек: FLAC (*.flac)
Тип рипа: tracks+.cue
Битрейт аудио: lossless
Продолжительность: 00:45:13
Источник (релизер): www
Наличие сканов в содержимом раздачи: нет

01. Prelude [00:57]
02. Overture [05:20]
03. Theme 1 [00:55]
04. Movement I [05:37]
05. Theme 2 [00:55]
06. Movement II [04:28]
07. Movement III [03:11]
08. Theme 3 [00:57]
09. Movement IV [04:33]
10. Movement V [03:41]
11. Theme 4 [01:19]
12. Movement VI [06:25]
13. Theme 5 [00:55]
14. Movement VII [02:35]
15. Epilogue [01:28]
16. Final [01:50]

Bass Trombone – Olivier Devaure
Bassoon – Jean-François Duquesnoy
Cello – Alexis Girard, Caroline Glory, Cyrille Lacrouts, Frédérica Tessari, Jérémy Bourré, Jérôme Treille
Clarinet – Bruno Martinez
Contrabassoon – Cécile Hardouin
Copyist – Stéphane Baudet
Double Bass – Grégoire Dubruel, Sylvain Leprovost
Drums – Stéphane Galland
Flute – Michel Moraguès
French Horn – Arthur Heintz, Hervé Joulain, Jean-Michel Tavernier, Jérôme Flaum
Guitar – François Delporte
Keyboards [Fender Rhodes] – Frank Woeste
Oboe – Mathilde Lebert
Orchestra – Paris Symphonic Orchestra
Orchestra [Children's Choir] – La Maîtrise Des Hauts De Seine
Percussion – Samuel Domergue
Timpani – Jean-Baptiste Leclère
Trombone – Julien Dugers, Nicolas Desvois, Nicolas Drabik*
Trumpet [Solo Trumpet], Piano, Keyboards – Ibrahim Maalouf
Trumpet, Flugelhorn – Christophe Griveau, Célestin Guérin, Frédéric Foucher, Jean Bollinger
Tuba – Fabien Wallerand
Viola – Emmanuel Blanc (2), Jean-Michel Lenert, Martin Rodriguez (2), Véronique Vichery
Violin [Solo Violin] – Sarah Nemtanu

 
Лог создания рипа
X Lossless Decoder version 20170729 (150.3)
XLD extraction logfile from 2018-11-23 16:31:20 +0100
Ibrahim Maalouf / Levantine Symphony No. 1
Used drive : MATSHITA CD-RW CW-8123 (revision CA10)
Media type : Pressed CD
Ripper mode : XLD Secure Ripper
Disable audio cache : OK for the drive with a cache less than 1375KiB
Make use of C2 pointers : NO
Read offset correction : 102
Max retry count : 100
Gap status : Analyzed, Appended (except HTOA)
TOC of the extracted CD
Track | Start | Length | Start sector | End sector
---------------------------------------------------------
1 | 00:00:00 | 00:57:56 | 0 | 4330
2 | 00:57:56 | 05:20:10 | 4331 | 28340
3 | 06:17:66 | 00:55:48 | 28341 | 32513
4 | 07:13:39 | 05:37:43 | 32514 | 57831
5 | 12:51:07 | 00:55:53 | 57832 | 62009
6 | 13:46:60 | 04:28:55 | 62010 | 82164
7 | 18:15:40 | 03:11:74 | 82165 | 96563
8 | 21:27:39 | 00:57:31 | 96564 | 100869
9 | 22:24:70 | 04:33:32 | 100870 | 121376
10 | 26:58:27 | 03:41:46 | 121377 | 137997
11 | 30:39:73 | 01:19:22 | 137998 | 143944
12 | 31:59:20 | 06:25:26 | 143945 | 172845
13 | 38:24:46 | 00:55:35 | 172846 | 177005
14 | 39:20:06 | 02:35:18 | 177006 | 188648
15 | 41:55:24 | 01:28:27 | 188649 | 195275
16 | 43:23:51 | 01:50:24 | 195276 | 203549
List of alternate offset correction values
# | Absolute | Relative | Confidence
------------------------------------------
1 | 103 | 1 | 1
AccurateRip Summary (DiscID: 001b8bda-014bb67a-dd0a9a10)
Track 01 : OK (v2, confidence 1/1, with different offset)
Track 02 : OK (v2, confidence 1/1, with different offset)
Track 03 : OK (v2, confidence 1/1, with different offset)
Track 04 : OK (v2, confidence 1/1, with different offset)
Track 05 : OK (v2, confidence 1/1, with different offset)
Track 06 : OK (v2, confidence 1/1, with different offset)
Track 07 : OK (v2, confidence 1/1, with different offset)
Track 08 : OK (v2, confidence 1/1, with different offset)
Track 09 : OK (v2, confidence 1/1, with different offset)
Track 10 : OK (v2, confidence 1/1, with different offset)
Track 11 : OK (v2, confidence 1/1, with different offset)
Track 12 : OK (v2, confidence 1/1, with different offset)
Track 13 : OK (v2, confidence 1/1, with different offset)
Track 14 : OK (v2, confidence 1/1, with different offset)
Track 15 : OK (v2, confidence 1/1, with different offset)
Track 16 : OK (v2, confidence 1/1, with different offset)
->All tracks accurately ripped.
All Tracks
Album gain : -8.64 dB
Peak : 0.976776
Statistics
Read error : 0
Jitter error (maybe fixed) : 0
Retry sector count : 0
Damaged sector count : 0
Track 01
Filename : /Rip/Ibrahim Maalouf - Levantine Symphony No. 1 (2018) [FLAC]/01 Prelude.flac
Pre-gap length : 00:02:00
Track gain : -0.15 dB
Peak : 0.947815
CRC32 hash (test run) : C38DA7A3
CRC32 hash : C38DA7A3
CRC32 hash (skip zero) : 62113893
AccurateRip v1 signature : CBCCCCC7
AccurateRip v2 signature : BA655F3E (989D9699 w/correction)
->Accurately ripped with different offset (v2, confidence 1/1, offset +1)
Statistics
Read error : 0
Jitter error (maybe fixed) : 0
Retry sector count : 0
Damaged sector count : 0
Track 02
Filename : /Rip/Ibrahim Maalouf - Levantine Symphony No. 1 (2018) [FLAC]/02 Overture.flac
Track gain : -8.37 dB
Peak : 0.953918
CRC32 hash (test run) : 5B8FB970
CRC32 hash : 5B8FB970
CRC32 hash (skip zero) : 0C64B956
AccurateRip v1 signature : 750109DD
AccurateRip v2 signature : EA2853E5 (3FEC07C4 w/correction)
->Accurately ripped with different offset (v2, confidence 1/1, offset +1)
Statistics
Read error : 0
Jitter error (maybe fixed) : 0
Retry sector count : 0
Damaged sector count : 0
Track 03
Filename : /Rip/Ibrahim Maalouf - Levantine Symphony No. 1 (2018) [FLAC]/03 Theme 1.flac
Track gain : -4.74 dB
Peak : 0.948853
CRC32 hash (test run) : AD6CBA40
CRC32 hash : AD6CBA40
CRC32 hash (skip zero) : 400DB7CB
AccurateRip v1 signature : C6A0BA03
AccurateRip v2 signature : C1135220 (CF3EEAE3 w/correction)
->Accurately ripped with different offset (v2, confidence 1/1, offset +1)
Statistics
Read error : 0
Jitter error (maybe fixed) : 0
Retry sector count : 0
Damaged sector count : 0
Track 04
Filename : /Rip/Ibrahim Maalouf - Levantine Symphony No. 1 (2018) [FLAC]/04 Movement I.flac
Track gain : -8.64 dB
Peak : 0.957397
CRC32 hash (test run) : 3A62111E
CRC32 hash : 3A62111E
CRC32 hash (skip zero) : 0A1EDE85
AccurateRip v1 signature : 0653BC18
AccurateRip v2 signature : D7917285 (08D3F877 w/correction)
->Accurately ripped with different offset (v2, confidence 1/1, offset +1)
Statistics
Read error : 0
Jitter error (maybe fixed) : 0
Retry sector count : 0
Damaged sector count : 0
Track 05
Filename : /Rip/Ibrahim Maalouf - Levantine Symphony No. 1 (2018) [FLAC]/05 Theme 2.flac
Track gain : -3.48 dB
Peak : 0.948425
CRC32 hash (test run) : 4DAB1E9F
CRC32 hash : 4DAB1E9F
CRC32 hash (skip zero) : D7DF9D9D
AccurateRip v1 signature : BDE35D74
AccurateRip v2 signature : CFBFD607 (4F8E0067 w/correction)
->Accurately ripped with different offset (v2, confidence 1/1, offset +1)
Statistics
Read error : 0
Jitter error (maybe fixed) : 0
Retry sector count : 0
Damaged sector count : 0
Track 06
Filename : /Rip/Ibrahim Maalouf - Levantine Symphony No. 1 (2018) [FLAC]/06 Movement II.flac
Track gain : -7.08 dB
Peak : 0.958191
CRC32 hash (test run) : 36C2C2D7
CRC32 hash : 36C2C2D7
CRC32 hash (skip zero) : D8ABDCD8
AccurateRip v1 signature : 41361357
AccurateRip v2 signature : 6DD96F59 (AD4F4E7F w/correction)
->Accurately ripped with different offset (v2, confidence 1/1, offset +1)
Statistics
Read error : 0
Jitter error (maybe fixed) : 0
Retry sector count : 0
Damaged sector count : 0
Track 07
Filename : /Rip/Ibrahim Maalouf - Levantine Symphony No. 1 (2018) [FLAC]/07 Movement III.flac
Track gain : -9.11 dB
Peak : 0.952515
CRC32 hash (test run) : 566F5D7C
CRC32 hash : 566F5D7C
CRC32 hash (skip zero) : F37610A5
AccurateRip v1 signature : 056569A9
AccurateRip v2 signature : 05151286 (C4BC4971 w/correction)
->Accurately ripped with different offset (v2, confidence 1/1, offset +1)
Statistics
Read error : 0
Jitter error (maybe fixed) : 0
Retry sector count : 0
Damaged sector count : 0
Track 08
Filename : /Rip/Ibrahim Maalouf - Levantine Symphony No. 1 (2018) [FLAC]/08 Theme 3.flac
Track gain : -9.59 dB
Peak : 0.950531
CRC32 hash (test run) : 225B36E2
CRC32 hash : 225B36E2
CRC32 hash (skip zero) : 5763D1EB
AccurateRip v1 signature : 2D257B0F
AccurateRip v2 signature : FCABBBAD (2B761291 w/correction)
->Accurately ripped with different offset (v2, confidence 1/1, offset +1)
Statistics
Read error : 0
Jitter error (maybe fixed) : 0
Retry sector count : 0
Damaged sector count : 0
Track 09
Filename : /Rip/Ibrahim Maalouf - Levantine Symphony No. 1 (2018) [FLAC]/09 Movement IV.flac
Track gain : -8.26 dB
Peak : 0.953613
CRC32 hash (test run) : 893FA030
CRC32 hash : 893FA030
CRC32 hash (skip zero) : AE8BAC47
AccurateRip v1 signature : 16399282
AccurateRip v2 signature : EBA41E4F (F06CEE17 w/correction)
->Accurately ripped with different offset (v2, confidence 1/1, offset +1)
Statistics
Read error : 0
Jitter error (maybe fixed) : 0
Retry sector count : 0
Damaged sector count : 0
Track 10
Filename : /Rip/Ibrahim Maalouf - Levantine Symphony No. 1 (2018) [FLAC]/10 Movement V.flac
Track gain : -8.14 dB
Peak : 0.951721
CRC32 hash (test run) : 64F0A6A0
CRC32 hash : 64F0A6A0
CRC32 hash (skip zero) : 7B9E58AC
AccurateRip v1 signature : 416EFF35
AccurateRip v2 signature : D4755106 (032504B2 w/correction)
->Accurately ripped with different offset (v2, confidence 1/1, offset +1)
Statistics
Read error : 0
Jitter error (maybe fixed) : 0
Retry sector count : 0
Damaged sector count : 0
Track 11
Filename : /Rip/Ibrahim Maalouf - Levantine Symphony No. 1 (2018) [FLAC]/11 Theme 4.flac
Track gain : -3.98 dB
Peak : 0.948853
CRC32 hash (test run) : 1692007C
CRC32 hash : 1692007C
CRC32 hash (skip zero) : 1365B412
AccurateRip v1 signature : F436FC67
AccurateRip v2 signature : 4BEC996F (755D160A w/correction)
->Accurately ripped with different offset (v2, confidence 1/1, offset +1)
Statistics
Read error : 0
Jitter error (maybe fixed) : 0
Retry sector count : 0
Damaged sector count : 0
Track 12
Filename : /Rip/Ibrahim Maalouf - Levantine Symphony No. 1 (2018) [FLAC]/12 Movement VI.flac
Track gain : -5.80 dB
Peak : 0.954315
CRC32 hash (test run) : 57548DCC
CRC32 hash : 57548DCC
CRC32 hash (skip zero) : A7BB1874
AccurateRip v1 signature : A5D15D10
AccurateRip v2 signature : 800C8CB5 (EC1B58E7 w/correction)
->Accurately ripped with different offset (v2, confidence 1/1, offset +1)
Statistics
Read error : 0
Jitter error (maybe fixed) : 0
Retry sector count : 0
Damaged sector count : 0
Track 13
Filename : /Rip/Ibrahim Maalouf - Levantine Symphony No. 1 (2018) [FLAC]/13 Theme 5.flac
Track gain : -2.52 dB
Peak : 0.830383
CRC32 hash (test run) : 0FC44752
CRC32 hash : 0FC44752
CRC32 hash (skip zero) : E86EE7EE
AccurateRip v1 signature : 835ECAAD
AccurateRip v2 signature : DB66EFC6 (4B4A0681 w/correction)
->Accurately ripped with different offset (v2, confidence 1/1, offset +1)
Statistics
Read error : 0
Jitter error (maybe fixed) : 0
Retry sector count : 0
Damaged sector count : 0
Track 14
Filename : /Rip/Ibrahim Maalouf - Levantine Symphony No. 1 (2018) [FLAC]/14 Movement VII.flac
Track gain : -1.43 dB
Peak : 0.908722
CRC32 hash (test run) : 8842BE0B
CRC32 hash : 8842BE0B
CRC32 hash (skip zero) : 71FCC48D
AccurateRip v1 signature : B27E4394
AccurateRip v2 signature : 72DD1A4B (934FBA61 w/correction)
->Accurately ripped with different offset (v2, confidence 1/1, offset +1)
Statistics
Read error : 0
Jitter error (maybe fixed) : 0
Retry sector count : 0
Damaged sector count : 0
Track 15
Filename : /Rip/Ibrahim Maalouf - Levantine Symphony No. 1 (2018) [FLAC]/15 Epilogue.flac
Track gain : -1.94 dB
Peak : 0.744171
CRC32 hash (test run) : D84B620D
CRC32 hash : D84B620D
CRC32 hash (skip zero) : 73A1AFF9
AccurateRip v1 signature : B7D89735
AccurateRip v2 signature : 45383819 (0CBEC3B4 w/correction)
->Accurately ripped with different offset (v2, confidence 1/1, offset +1)
Statistics
Read error : 0
Jitter error (maybe fixed) : 0
Retry sector count : 0
Damaged sector count : 0
Track 16
Filename : /Rip/Ibrahim Maalouf - Levantine Symphony No. 1 (2018) [FLAC]/16 Final.flac
Track gain : -9.54 dB
Peak : 0.976776
CRC32 hash (test run) : A1B5EB21
CRC32 hash : A1B5EB21
CRC32 hash (skip zero) : 8AEB2B81
AccurateRip v1 signature : F2296010
AccurateRip v2 signature : C69311F3 (1C858D9D w/correction)
->Accurately ripped with different offset (v2, confidence 1/1, offset +1)
Statistics
Read error : 0
Jitter error (maybe fixed) : 0
Retry sector count : 0
Damaged sector count : 0
No errors occurred
End of status report
-----BEGIN XLD SIGNATURE-----
R_dR5gS3KEeIMx2cPgAl76a9sXdDHiMUrnmAD8vTA3SaF6diR9V8BrQRsuvBgx.18x1tpFLzI7XOnxe1PXJX8sKtAVEAm1HESksAFAO
-----END XLD SIGNATURE-----
 
Содержание индексной карты (.CUE)
TITLE "Levantine Symphony No. 1"
PERFORMER "Ibrahim Maalouf"
REM GENRE "Jazz"
REM DATE "2018"
REM DISCNUMBER 1
REM TOTALDISCS 1
REM DISCID DD0A9A10
REM REPLAYGAIN_ALBUM_GAIN -8.64 dB
REM REPLAYGAIN_ALBUM_PEAK 0.976776
FILE "01 Prelude.flac" WAVE
TRACK 01 AUDIO
TITLE "Prelude"
ISRC FRP8H1800010
FLAGS DCP
REM REPLAYGAIN_TRACK_GAIN -0.15 dB
REM REPLAYGAIN_TRACK_PEAK 0.947815
INDEX 01 00:00:00
FILE "02 Overture.flac" WAVE
TRACK 02 AUDIO
TITLE "Overture"
ISRC FRP8H1800020
FLAGS DCP
REM REPLAYGAIN_TRACK_GAIN -8.37 dB
REM REPLAYGAIN_TRACK_PEAK 0.953918
INDEX 01 00:00:00
FILE "03 Theme 1.flac" WAVE
TRACK 03 AUDIO
TITLE "Theme 1"
ISRC FRP8H1800030
FLAGS DCP
REM REPLAYGAIN_TRACK_GAIN -4.74 dB
REM REPLAYGAIN_TRACK_PEAK 0.948853
INDEX 01 00:00:00
FILE "04 Movement I.flac" WAVE
TRACK 04 AUDIO
TITLE "Movement I"
ISRC FRP8H1800040
FLAGS DCP
REM REPLAYGAIN_TRACK_GAIN -8.64 dB
REM REPLAYGAIN_TRACK_PEAK 0.957397
INDEX 01 00:00:00
FILE "05 Theme 2.flac" WAVE
TRACK 05 AUDIO
TITLE "Theme 2"
ISRC FRP8H1800050
FLAGS DCP
REM REPLAYGAIN_TRACK_GAIN -3.48 dB
REM REPLAYGAIN_TRACK_PEAK 0.948425
INDEX 01 00:00:00
FILE "06 Movement II.flac" WAVE
TRACK 06 AUDIO
TITLE "Movement II"
ISRC FRP8H1800060
FLAGS DCP
REM REPLAYGAIN_TRACK_GAIN -7.08 dB
REM REPLAYGAIN_TRACK_PEAK 0.958191
INDEX 01 00:00:00
FILE "07 Movement III.flac" WAVE
TRACK 07 AUDIO
TITLE "Movement III"
ISRC FRP8H1800070
FLAGS DCP
REM REPLAYGAIN_TRACK_GAIN -9.11 dB
REM REPLAYGAIN_TRACK_PEAK 0.952515
INDEX 01 00:00:00
FILE "08 Theme 3.flac" WAVE
TRACK 08 AUDIO
TITLE "Theme 3"
ISRC FRP8H1800080
FLAGS DCP
REM REPLAYGAIN_TRACK_GAIN -9.59 dB
REM REPLAYGAIN_TRACK_PEAK 0.950531
INDEX 01 00:00:00
FILE "09 Movement IV.flac" WAVE
TRACK 09 AUDIO
TITLE "Movement IV"
ISRC FRP8H1800090
FLAGS DCP
REM REPLAYGAIN_TRACK_GAIN -8.26 dB
REM REPLAYGAIN_TRACK_PEAK 0.953613
INDEX 01 00:00:00
FILE "10 Movement V.flac" WAVE
TRACK 10 AUDIO
TITLE "Movement V"
ISRC FRP8H1800100
FLAGS DCP
REM REPLAYGAIN_TRACK_GAIN -8.14 dB
REM REPLAYGAIN_TRACK_PEAK 0.951721
INDEX 01 00:00:00
FILE "11 Theme 4.flac" WAVE
TRACK 11 AUDIO
TITLE "Theme 4"
ISRC FRP8H1800110
FLAGS DCP
REM REPLAYGAIN_TRACK_GAIN -3.98 dB
REM REPLAYGAIN_TRACK_PEAK 0.948853
INDEX 01 00:00:00
FILE "12 Movement VI.flac" WAVE
TRACK 12 AUDIO
TITLE "Movement VI"
ISRC FRP8H1800120
FLAGS DCP
REM REPLAYGAIN_TRACK_GAIN -5.80 dB
REM REPLAYGAIN_TRACK_PEAK 0.954315
INDEX 01 00:00:00
FILE "13 Theme 5.flac" WAVE
TRACK 13 AUDIO
TITLE "Theme 5"
ISRC FRP8H1800130
FLAGS DCP
REM REPLAYGAIN_TRACK_GAIN -2.52 dB
REM REPLAYGAIN_TRACK_PEAK 0.830383
INDEX 01 00:00:00
FILE "14 Movement VII.flac" WAVE
TRACK 14 AUDIO
TITLE "Movement VII"
ISRC FRP8H1800140
FLAGS DCP
REM REPLAYGAIN_TRACK_GAIN -1.43 dB
REM REPLAYGAIN_TRACK_PEAK 0.908722
INDEX 01 00:00:00
FILE "15 Epilogue.flac" WAVE
TRACK 15 AUDIO
TITLE "Epilogue"
ISRC FRP8H1800150
FLAGS DCP
REM REPLAYGAIN_TRACK_GAIN -1.94 dB
REM REPLAYGAIN_TRACK_PEAK 0.744171
INDEX 01 00:00:00
FILE "16 Final.flac" WAVE
TRACK 16 AUDIO
TITLE "Final"
ISRC FRP8H1800160
FLAGS DCP
REM REPLAYGAIN_TRACK_GAIN -9.54 dB
REM REPLAYGAIN_TRACK_PEAK 0.976776
INDEX 01 00:00:00
Any questions - support@pro-jazz.com.
Есть вопросы - support@pro-jazz.com
10:47
243
Нет комментариев. Ваш будет первым!