Поиск

(World Fusion, Brazilian Jazz) [CD] Moacir Santos - Saudade - 1974 (2012 Japan Edition), FLAC (image+.cue), lossless

(World Fusion, Brazilian Jazz) [CD] Moacir Santos - Saudade - 1974 (2012 Japan Edition), FLAC (image+.cue), lossless
Треклист:
Moacir Santos - Saudade
Жанр: World Fusion, Brazilian Jazz
Носитель: CD
Страна-производитель диска (релиза): Япония
Год издания: 2012
Издатель (лейбл): Blue Note/EMI Music Japan
Номер по каталогу: TOCJ-50510
Аудиокодек: FLAC (*.flac)
Тип рипа: image+.cue
Битрейт аудио: lossless
Продолжительность: 36:59
Источник (релизер): диск из моей коллекции
Наличие сканов в содержимом раздачи: да
Треклист:
01. Early Morning Love (Santos-Cotti) - 3:27
02. A Saudade Mata a Gente (De Barro-Almeida) - 6:12
03. Off and On (Santos-Cotti) - 3:39
04. The City of LA (Levine) - 3:40
05. Suk Cha (Santos) - 4:10
06. Kathy (Santos-Livingston-Evans) - 3:39
07. Haply-Happy (Santos-Powell) - 3:01
08. Amphibious (Santos-Assis) - 3:26
09. This Life (Santos-Cotti) - 2:35
10. What's My Name (Santos-Livingston-Evans) - 3:08
 
Лог создания рипа
Exact Audio Copy V1.0 beta 6 from 9. April 2015
EAC extraction logfile from 25. May 2015, 1:26
Moacir Santos / Saudade
Used drive : ASUS DRW-24B1LT Adapter: 1 ID: 1
Read mode : Secure
Utilize accurate stream : Yes
Defeat audio cache : Yes
Make use of C2 pointers : No
Read offset correction : 6
Overread into Lead-In and Lead-Out : No
Fill up missing offset samples with silence : Yes
Delete leading and trailing silent blocks : No
Null samples used in CRC calculations : Yes
Used interface : Native Win32 interface for Win NT & 2000
Used output format : User Defined Encoder
Selected bitrate : 768 kBit/s
Quality : High
Add ID3 tag : No
Command line compressor : C:\Program Files\Exact Audio Copy\Flac\flac.exe
Additional command line options : -8 -V -T "ARTIST=%artist%" -T "TITLE=%title%" -T "ALBUM=%albumtitle%" -T "DATE=%year%" -T "TRACKNUMBER=%tracknr%" -T "TOTALTRACKS=%numtracks%" -T "GENRE=%genre%" -T "ALBUMARTIST=%albumartist%" -T "ALBUM ARTIST=%albumartist%" -T "COMMENT=EAC Secure Mode, Test & Copy, AccurateRip, FLAC -8" %source%
TOC of the extracted CD
Track | Start | Length | Start sector | End sector
---------------------------------------------------------
1 | 0:00.00 | 3:27.25 | 0 | 15549
2 | 3:27.25 | 6:11.63 | 15550 | 43437
3 | 9:39.13 | 3:39.27 | 43438 | 59889
4 | 13:18.40 | 3:39.44 | 59890 | 76358
5 | 16:58.09 | 4:10.23 | 76359 | 95131
6 | 21:08.32 | 3:39.22 | 95132 | 111578
7 | 24:47.54 | 3:01.23 | 111579 | 125176
8 | 27:49.02 | 3:26.28 | 125177 | 140654
9 | 31:15.30 | 2:35.37 | 140655 | 152316
10 | 33:50.67 | 3:07.60 | 152317 | 166401
Range status and errors
Selected range
Filename F:\audio\Moacir Santos - Saudade.wav
Peak level 97.2 %
Extraction speed 5.1 X
Range quality 100.0 %
Test CRC 08753648
Copy CRC 08753648
Copy OK
No errors occurred
AccurateRip summary
Track 1 accurately ripped (confidence 2) [6F2D08C1] (AR v2)
Track 2 accurately ripped (confidence 2) [13D01DC9] (AR v2)
Track 3 accurately ripped (confidence 2) [FEEF7D96] (AR v2)
Track 4 accurately ripped (confidence 2) [1F056900] (AR v2)
Track 5 accurately ripped (confidence 2) [363CFE6C] (AR v2)
Track 6 accurately ripped (confidence 2) [5D763FEB] (AR v2)
Track 7 accurately ripped (confidence 2) [384CF5C4] (AR v2)
Track 8 accurately ripped (confidence 2) [00C49F8F] (AR v2)
Track 9 accurately ripped (confidence 2) [AB626112] (AR v2)
Track 10 accurately ripped (confidence 2) [7B7B4456] (AR v2)
All tracks accurately ripped
End of status report
---- CUETools DB Plugin V2.1.6
[CTDB TOCID: 4Lyu8cs7gYWN.1_ctS8jVCZwgbE-] found
Submit result: 4Lyu8cs7gYWN.1_ctS8jVCZwgbE- has been confirmed
Track | CTDB Status
1 | (6/6) Accurately ripped
2 | (6/6) Accurately ripped
3 | (6/6) Accurately ripped
4 | (6/6) Accurately ripped
5 | (6/6) Accurately ripped
6 | (6/6) Accurately ripped
7 | (6/6) Accurately ripped
8 | (6/6) Accurately ripped
9 | (6/6) Accurately ripped
10 | (6/6) Accurately ripped
==== Log checksum 4C7B35A39F17F2352C9F311E1229E90D75791D54996C5A052149CE4FD7796968 ====
 
Содержание индексной карты (.CUE)
REM GENRE Jazz
REM DATE 1974
REM DISCID 7308AA0A
REM COMMENT "ExactAudioCopy v1.0b6"
PERFORMER "Moacir Santos"
TITLE "Saudade"
FILE "Moacir Santos - Saudade.wav" WAVE
TRACK 01 AUDIO
TITLE "Early Morning Love"
PERFORMER "Moacir Santos"
INDEX 01 00:00:00
TRACK 02 AUDIO
TITLE "A Saudade Mata a Gente"
PERFORMER "Moacir Santos"
INDEX 00 03:25:02
INDEX 01 03:27:25
TRACK 03 AUDIO
TITLE "Off and On"
PERFORMER "Moacir Santos"
INDEX 00 09:36:65
INDEX 01 09:39:13
TRACK 04 AUDIO
TITLE "The City of LA"
PERFORMER "Moacir Santos"
INDEX 00 13:16:17
INDEX 01 13:18:40
TRACK 05 AUDIO
TITLE "Suk Cha"
PERFORMER "Moacir Santos"
INDEX 00 16:55:61
INDEX 01 16:58:09
TRACK 06 AUDIO
TITLE "Kathy"
PERFORMER "Moacir Santos"
INDEX 00 21:06:09
INDEX 01 21:08:32
TRACK 07 AUDIO
TITLE "Haply-Happy"
PERFORMER "Moacir Santos"
INDEX 00 24:45:31
INDEX 01 24:47:54
TRACK 08 AUDIO
TITLE "Amphibious"
PERFORMER "Moacir Santos"
INDEX 00 27:46:54
INDEX 01 27:49:02
TRACK 09 AUDIO
TITLE "This Life"
PERFORMER "Moacir Santos"
INDEX 00 31:13:07
INDEX 01 31:15:30
TRACK 10 AUDIO
TITLE "What's My Name"
PERFORMER "Moacir Santos"
INDEX 00 33:48:44
INDEX 01 33:50:67
 
Отчет CUETools
[CUETools log; Date: 25.05.2015 15:10:05; Version: 2.1.5]
[CTDB TOCID: 4Lyu8cs7gYWN.1_ctS8jVCZwgbE-] found.
Track | CTDB Status
1 | (7/7) Accurately ripped
2 | (7/7) Accurately ripped
3 | (7/7) Accurately ripped
4 | (7/7) Accurately ripped
5 | (7/7) Accurately ripped
6 | (7/7) Accurately ripped
7 | (7/7) Accurately ripped
8 | (7/7) Accurately ripped
9 | (7/7) Accurately ripped
10 | (7/7) Accurately ripped
[AccurateRip ID: 000f0d83-007656fe-7308aa0a] found.
Track [ CRC | V2 ] Status
01 [c22a6a2b|6f2d08c1] (0+2/2) Accurately ripped
02 [da1f4229|13d01dc9] (0+2/2) Accurately ripped
03 [a0a6539e|feef7d96] (0+2/2) Accurately ripped
04 [9501c524|1f056900] (0+2/2) Accurately ripped
05 [b63987b4|363cfe6c] (0+2/2) Accurately ripped
06 [45d1456f|5d763feb] (0+2/2) Accurately ripped
07 [d68a373d|384cf5c4] (0+2/2) Accurately ripped
08 [f256a92e|00c49f8f] (0+2/2) Accurately ripped
09 [a583adcc|ab626112] (0+2/2) Accurately ripped
10 [edf874e6|7b7b4456] (0+2/2) Accurately ripped
Track Peak [ CRC32 ] [W/O NULL] [ LOG ]
-- 97,2 [08753648] [FF482861] CRC32
01 96,8 [470AF040] [5C09A1B5]
02 97,2 [8F8A0557] [51F177F6]
03 97,1 [6ACB2130] [AF5FB156]
04 97,1 [0D5D02CB] [FE2FD00B]
05 96,8 [D9F46F3B] [4CBBD98B]
06 97,1 [3F52F860] [A8DC1CF0]
07 96,9 [32E165F2] [FB3588A5]
08 96,9 [9F8F6FB6] [50924CB7]
09 96,8 [0C3F318E] [ABF580F8]
10 96,9 [8D6302C8] [D4FE1D7C]
 
Об альбоме (сборнике)
Moacir Santos is a Brazilian composer, arranger and saxophonist from the first team of Brazilian Jazz. He's one of those artists who are underrated by the big audiences but widely known by those who appreciate inspiration, beauty, intelligence when applicable to music composition and arrangement.
This is the second of his three albums for Blue Note Records, a long time awaited for reissue. Catalog number was BN-LA260-G, recorded in New York, 1974. A natural follower to the first `The Maestro' (from 1972), also a memorable album with the unique Santos' way of doing the thing what includes an intricate shape of samba, an uncommon way of dividing that is unique in his compositions, a kind of registered mark which identifies Santos.
"Saudade" was recorded by an all-star Jazz team with arrangements by Moacir Santos (except for one track arranged by Mark Levine, the pianist for all the tracks). The dream team includes the late Jerome Richardson (with a brilliant flute solo in `Kathy'), Ray Pizzi on tenor sax, bassoon and flute (with beautiful flute and piccolo lines in `The City of LA' and bassoon line in `Suk Cha'), Lee Ritenour on guitar, and Harvey Mason on drums.
Some vocals show up in some tracks what includes some Mr. Santos singing solos along with a four-member vocal group. All sung in English with some exception partly sung in Portuguese too like `Haply-Hap'.
`A Saudade Mata a Gente' is a traditional Brazilian folk song with a Santos' sensational arrangement which gives way for brilliant solos by Pizzi and by trumpeter Steve Huffsteter.
You'll find top quality amusement in the exotic arrangements for instrumental lines in virtually all tracks but specially `A Saudade Mata a Gente', `The City of LA', `Suk-Cha', `Kathy', and `Amphibious',
Program ends with a beautiful song `What's My Name' with a different beat and with vocals by Mike Campbell and Moacir Santos.
All original compositions by Mr. Santos except `A Saudade Mata a Gente' (typed differently in the album cover with a wrong double `t').
A must-have.
-- Carlos from Rio
 
Состав
Moacir Santos - alto saxophone, baritone saxophone
Steve Huffsteter - trumpet, flugelhorn
Benny Powell - trombone
Morris Repass - bass trombone
Sidney Muldrow - French horn
Ray Pizzi - bassoon, alto saxophone, tenor saxophone, flute, piccolo
Jerome Richardson - soprano saxophone, alto saxophone, tenor saxophone, baritone saxophone, flute, alto flute
Mark Levine - piano, electric piano
Lee Ritenour - guitar, electric guitar
John Heard - bass, electric bass
Harvey Mason - drums
Mayuto Correa, Carmelo Garcia - congas, percussion
Donald Alves, Mike Campbell, Jose Marino, Petsye Powell, Carmen Saveiros, Regina Werneck - backing vocals
Recorded at United Artists Studios, West Hollywood, CA on March 5, 6 & 12, 1974.
18:48
274
Нет комментариев. Ваш будет первым!