Поиск

(World Fusion, Afro-Cuban Jazz) Orlando "Puntilla" Rios & Nueva Generacion - Spirit Rhythms: Sacred Drumming & Chants from Cuba - 1996, APE (image+.cue), lossless

Треклист:
Orlando "Puntilla" Rios & Nueva Generacion / Spirit Rhythms: Sacred Drumming & Chants from Cuba
Жанр: World Fusion, Afro-Cuban Jazz
Год издания диска: 1996
Издатель (лейбл): Latitudes
Номер по каталогу: LT 50603
Аудиокодек: APE (*.ape)
Тип рипа: image+.cue
Битрейт аудио: lossless
Продолжительность: 00:40:50
Источник (релизер): dreadbull
Наличие сканов в содержимом раздачи: да
Треклист:
1. Aichara Icha 5:07
2. Maiseboa 3:47
3. Odiyé 2:39
4. Rezo a Ochún 5:24
5. Drumming Excerpt 1:46
6. Canto para Elegguá 3:32
7. Canto para Changó 4:22
8. Yesá 2:25
9. Canto Arará para Yemayá 6:35
10. Amanamá 4:34
 
Лог создания рипа
EAC extraction logfile from 14. May 2011, 16:10 for CD
Orlando "Puntilla" Rios & Nueva Generacion / Spirit Rhytms, Sacred Drumming & Chants from Cuba
Used drive : ASUS DRW-22B2L Adapter: 0 ID: 1
Read mode : Secure with NO C2, accurate stream, disable cache
Read offset correction : 6
Overread into Lead-In and Lead-Out : No
Used output format : Internal WAV Routines
44.100 Hz; 16 Bit; Stereo
Other options :
Fill up missing offset samples with silence : Yes
Delete leading and trailing silent blocks : No
Installed external ASPI interface
Range status and errors
Selected range
Filename D:\Donkey Files\Orlando Rios Puntilla & Nueva Generacion - Spirit Rhythms (1987, Latitudes 1996) [eac-ape-scans] byDrBull\CDImage.wav
Peak level 100.0 %
Range quality 99.9 %
CRC 1AF47A2B
Copy OK
No errors occured
End of status report
 
Содержание индексной карты (.CUE)
CATALOG 0000000000000
PERFORMER "Orlando 'Puntilla' Rios & Nueva Generacion"
TITLE "Spirit Rhytms, Sacred Drumming & Chants from Cuba"
FILE "CDImage.wav" WAVE
TRACK 01 AUDIO
TITLE "Aichara Icha"
PERFORMER "Orlando 'Puntilla' Rios & Nueva Generacion"
INDEX 01 00:00:00
TRACK 02 AUDIO
TITLE "Maiseboa"
PERFORMER "Orlando 'Puntilla' Rios & Nueva Generacion"
INDEX 01 05:11:22
TRACK 03 AUDIO
TITLE "Odiyй"
PERFORMER "Orlando 'Puntilla' Rios & Nueva Generacion"
INDEX 01 09:01:05
TRACK 04 AUDIO
TITLE "Rezo a Ochъn"
PERFORMER "Orlando 'Puntilla' Rios & Nueva Generacion"
INDEX 01 11:44:47
TRACK 05 AUDIO
TITLE "Drumming Excerpt"
PERFORMER "Orlando 'Puntilla' Rios & Nueva Generacion"
INDEX 01 17:13:15
TRACK 06 AUDIO
TITLE "Canto para Elegguб"
PERFORMER "Orlando 'Puntilla' Rios & Nueva Generacion"
INDEX 01 19:02:62
TRACK 07 AUDIO
TITLE "Canto para Changу"
PERFORMER "Orlando 'Puntilla' Rios & Nueva Generacion"
INDEX 01 22:38:35
TRACK 08 AUDIO
TITLE "Yesб"
PERFORMER "Orlando 'Puntilla' Rios & Nueva Generacion"
INDEX 01 27:05:22
TRACK 09 AUDIO
TITLE "Canto Ararб para Yemayб"
PERFORMER "Orlando 'Puntilla' Rios & Nueva Generacion"
INDEX 01 29:34:40
TRACK 10 AUDIO
TITLE "Amanamб"
PERFORMER "Orlando 'Puntilla' Rios & Nueva Generacion"
INDEX 01 36:13:50
 
Состав
Orlando "Puntilla" Rios
Carlos Sánchez
Eddie Rodríguez
Anthony Carillo
Félix Sanabria
Abraham Rodríguez
Gene Golden
Olufemi Mitchell
Oscar González
Ama McCann.
23:20
306
Нет комментариев. Ваш будет первым!