Поиск

(World Fusion, Afro-Cuban Jazz, New York Salsa) Ray Barretto & New World Spirit - Ancestral Messages - 1993, APE (image+.cue), lossless

Треклист:
Ray Barretto & New World Spirit / Ancestral Messages
Жанр: World Fusion, Afro-Cuban Jazz, New York Salsa
Страна-производитель диска: Germany
Год издания диска: 1993
Издатель (лейбл): Concord Picante
Номер по каталогу: CCD-4549
Страна: USA Brooklyn, NY
Аудиокодек: APE (*.ape)
Тип рипа: image+.cue
Битрейт аудио: lossless
Продолжительность: 00:56:37
Источник (релизер): improvisador
Наличие сканов в содержимом раздачи: да
Треклист:
01. New World Spirit (5:26)
02. Song for Chano (5:47)
03. Freedom Jazz Dance (7:46)
04. On a Sunday Afternoon (4:51)
05. Beautiful Love (5:40)
06. Killer Joe (5:50)
07. Aqua Blue (5:20)
08. Gabriela (5:15)
09. My Latin New York (5:22)
10. Ancestral Messages (5:16)
 
Лог создания рипа
EAC extraction logfile from 23. June 2006, 13:28 for CD
Ray Barretto & New World Spirit / Ancestral Messages
Used drive : HL-DT-STCD-RW GCE-8525B Adapter: 1 ID: 0
Read mode : Secure with NO C2, accurate stream, disable cache
Read offset correction : 6
Overread into Lead-In and Lead-Out : No
Used output format : G:\Monkey's Audio\MAC.exe (Monkey's Audio Lossless Encoder)
Extra High Lossless Compression
Other options :
Fill up missing offset samples with silence : Yes
Delete leading and trailing silent blocks : No
Installed external ASPI interface
Range status and errors
Selected range
Filename G:\JAZZ\Ray Barretto & New World Spirit - Ancestral Messages\CDImage.wav
Peak level 100.0 %
Range quality 99.9 %
CRC E610E160
Copy OK
No errors occured
End of status report
 
Содержание индексной карты (.CUE)
PERFORMER "Ray Barretto & New World Spirit"
TITLE "Ancestral Messages"
FILE "CDImage.ape" WAVE
TRACK 01 AUDIO
TITLE "New World Spirit"
PERFORMER "Ray Barretto & New World Spirit"
INDEX 01 00:00:00
TRACK 02 AUDIO
TITLE "Song For Chano"
PERFORMER "Ray Barretto & New World Spirit"
INDEX 00 05:23:12
INDEX 01 05:26:35
TRACK 03 AUDIO
TITLE "Freedom Jazz Dance"
PERFORMER "Ray Barretto & New World Spirit"
INDEX 00 11:11:40
INDEX 01 11:14:25
TRACK 04 AUDIO
TITLE "On A Sunday Afternoon"
PERFORMER "Ray Barretto & New World Spirit"
INDEX 00 18:57:22
INDEX 01 19:00:40
TRACK 05 AUDIO
TITLE "Beautiful Love"
PERFORMER "Ray Barretto & New World Spirit"
INDEX 00 23:49:12
INDEX 01 23:52:12
TRACK 06 AUDIO
TITLE "Killer Joe"
PERFORMER "Ray Barretto & New World Spirit"
INDEX 00 29:30:47
INDEX 01 29:33:10
TRACK 07 AUDIO
TITLE "Aqua Blue"
PERFORMER "Ray Barretto & New World Spirit"
INDEX 00 35:21:07
INDEX 01 35:23:12
TRACK 08 AUDIO
TITLE "Gabriela"
PERFORMER "Ray Barretto & New World Spirit"
INDEX 00 40:42:52
INDEX 01 40:45:40
TRACK 09 AUDIO
TITLE "My Latin New York"
PERFORMER "Ray Barretto & New World Spirit"
INDEX 00 45:58:60
INDEX 01 46:01:62
TRACK 10 AUDIO
TITLE "Ancestral Messages"
PERFORMER "Ray Barretto & New World Spirit"
INDEX 00 50:36:20
INDEX 01 50:39:15
 
Состав
Ray Barretto - Conga, Percussion
Ray Vega - Trumpet, Flugelhorn, Percussion
Jay Rodriguez - Tenor Sax, Flute
Hector Martignon - Piano, Synthesizer
Jairo Moreno - Bass
Satoshi Takeishi - Drums
Alfredo Gonzales - Guiro
21:44
334
Нет комментариев. Ваш будет первым!