Поиск

(World Fusion, Afro-beat, Electronic, Jazz) Jasper Van't Hof - Pili Pili - (1984 + 4 bonus-tracks), FLAC (image+.cue) lossless

Треклист:
Jasper Van't Hof / Pili Pili (1984) + 4 bonus-tracks
Жанр: World Fusion, Afro-beat, Electronic, Jazz
Страна-производитель cd-диска: EEC (Germany)
Год издания cd-диска: 1989
Издатель (лейбл): Jaro International
Номер по каталогу: JARO 4141
Аудио кодек: FLAC (*.flac)
Тип рипа: image+.cue
Битрейт аудио: lossless
Продолжительность: 01:09:04
Источник (релизер): рип мой . cd тоже .
Наличие сканов в содержимом раздачи: нет
Треклист:
01. Pili Pili (15:44)
02. Smiling Lingala (4:30)
03. Kalungu Talks (6:32)
04. Virgin Jungle (6:35)
05. Afro Timento (5:42)
06. Ile (7:18)
07. My Gongoma (6:27)
08. Kinshasa Im Bote (8:34)
09. Kiba (7:40)
 
состав
 
Лог создания рипа
Exact Audio Copy V0.99 prebeta 5 from 4. May 2009
Отчёт EAC об извлечении, выполненном 1. ноября 2010, 17:02
Jasper Van't Hof / Pili Pili
Дисковод: SONY DVD RW DRX-S70U Adapter: 1 ID: 0
Режим чтения : Достоверность
Использование точного потока : Да
Отключение кэша аудио : Да
Использование указателей C2 : Нет
Коррекция смещения при чтении : 48
Способность читать области Lead-in и Lead-out : Нет
Заполнение пропущенных сэмплов тишиной : Да
Удаление блоков с тишиной в начале и конце : Нет
При вычислениях CRC использовались нулевые сэмплы : Да
Интерфейс : Встроенный Win32-интерфейс для Win NT/2000
Выходной формат : Пользовательский кодировщик
Выбранный битрейт : 768 kBit/s
Качество : Высокий
Добавление ID3-тэга : Нет
Утилита сжатия : H:\Program Files\Exact Audio Copy\Flac\flac.exe
Дополнительные параметры : -6 -V -T "ARTIST=%a" -T "TITLE=%t" -T "ALBUM=%g" -T "DATE=%y" -T "TRACKNUMBER=%n" -T "GENRE=%m" -T "COMMENT=%e" %s -o %d
TOC извлечённого CD
Трек | Старт | Длительность | Начальный сектор | Конечный сектор
---------------------------------------------------------------------
1 | 0:00.00 | 15:44.10 | 0 | 70809
2 | 15:44.10 | 4:30.32 | 70810 | 91091
3 | 20:14.42 | 6:32.25 | 91092 | 120516
4 | 26:46.67 | 6:34.70 | 120517 | 150136
5 | 33:21.62 | 5:42.13 | 150137 | 175799
6 | 39:04.00 | 7:18.25 | 175800 | 208674
7 | 46:22.25 | 6:27.25 | 208675 | 237724
8 | 52:49.50 | 8:34.00 | 237725 | 276274
9 | 61:23.50 | 7:40.25 | 276275 | 310799
Характеристики диапазона извлечения и сообщения об ошибках
Выбранный диапазон
Имя файла F:\Jasper Van't Hof\Jasper Van't Hof - Pili Pili.wav
Пиковый уровень 100.0 %
Качество диапазона 100.0 %
CRC теста A80798F8
CRC копии A80798F8
Копирование... OK
Ошибок не произошло
AccurateRip: сводка
Трек 1 точное извлечение (доверие 4) [D807A0B7]
Трек 2 точное извлечение (доверие 5) [69338E01]
Трек 3 точное извлечение (доверие 5) [5B0271EF]
Трек 4 точное извлечение (доверие 5) [F2EAA501]
Трек 5 точное извлечение (доверие 5) [08B39A01]
Трек 6 точное извлечение (доверие 5) [CCB0B26A]
Трек 7 точное извлечение (доверие 5) [8A6F7696]
Трек 8 точное извлечение (доверие 4) [78D51800]
Трек 9 точное извлечение (доверие 4) [C81E7903]
Все треки извлечены точно
Конец отчёта
 
Содержание индексной карты (.CUE)
REM GENRE Jazz
REM DATE 1989
REM DISCID 79103009
REM COMMENT "ExactAudioCopy v0.99pb5"
PERFORMER "Jasper Van't Hof"
TITLE "Pili Pili"
FILE "Jasper Van't Hof - Pili Pili.flac" WAVE
TRACK 01 AUDIO
TITLE "Pili Pili"
PERFORMER "Jasper Van't Hof"
INDEX 01 00:00:00
TRACK 02 AUDIO
TITLE "Smiling Lingala"
PERFORMER "Jasper Van't Hof"
INDEX 01 15:44:10
TRACK 03 AUDIO
TITLE "Kalungu Talks"
PERFORMER "Jasper Van't Hof"
INDEX 01 20:14:42
TRACK 04 AUDIO
TITLE "Virgin Jungle"
PERFORMER "Jasper Van't Hof"
INDEX 01 26:46:67
TRACK 05 AUDIO
TITLE "Afro Timento"
PERFORMER "Jasper Van't Hof"
INDEX 01 33:21:62
TRACK 06 AUDIO
TITLE "Ile"
PERFORMER "Jasper Van't Hof"
INDEX 01 39:04:00
TRACK 07 AUDIO
TITLE "My Gongoma"
PERFORMER "Jasper Van't Hof"
INDEX 01 46:22:25
TRACK 08 AUDIO
TITLE "Kinshasa Im Bote"
PERFORMER "Jasper Van't Hof"
INDEX 01 52:49:50
TRACK 09 AUDIO
TITLE "Kiba"
PERFORMER "Jasper Van't Hof"
INDEX 01 61:23:50
 
Лог проверки качества
AUDIOCHECKER v2.0 beta (build 457) - by Dester - opdester@freemail.hu
~~~~~~~~~~~~~~~~~~~~~~~~~~~~~~~~~~
-=== DO NOT EDIT THIS FILE! ===-
Path: ...\Jasper Van't Hof
1 -=- Jasper Van't Hof - Pili Pili.flac -=- MPEG (95%)
79318692
 
TauAnalyzer
18:55
354
Нет комментариев. Ваш будет первым!