Поиск

(World Fusion, African Traditions, African Jazz) Kwaku Kwaakye Obeng - Afrijazz - 2003, FLAC (tracks+.cue), lossless

(World Fusion, African Traditions, African Jazz) Kwaku Kwaakye Obeng - Afrijazz - 2003, FLAC (tracks+.cue), lossless
Треклист:
Kwaku Kwaakye Obeng / Afrijazz
Жанр: World Fusion, African Traditions, African Jazz
Год издания: 2003
Издатель (лейбл): Innova
Номер по каталогу: 583
Страна: Ghana
Аудиокодек: FLAC (*.flac)
Тип рипа: tracks+.cue
Битрейт аудио: lossless
Продолжительность: 00:57:47
Источник (релизер): notfake
Наличие сканов в содержимом раздачи: нет
Треклист:
1. Greetings
2. Orenten #6
3. Message
4. Kid's - Konko - Da
5. Akampa
6. 'Round Midnight
7. Ghana Gumbo
8. Fine Fine Baby
9. Worship
10. Thank You
 
Лог создания рипа
Exact Audio Copy V1.0 beta 3 from 29. August 2011
EAC extraction logfile from 21. November 2012, 20:41
Kwaku Kwaakye Obeng / Afrijazz
Used drive : TSSTcorpDVD+-RW TS-H653B Adapter: 2 ID: 0
Read mode : Secure
Utilize accurate stream : Yes
Defeat audio cache : Yes
Make use of C2 pointers : No
Read offset correction : 6
Overread into Lead-In and Lead-Out : No
Fill up missing offset samples with silence : Yes
Delete leading and trailing silent blocks : No
Null samples used in CRC calculations : Yes
Used interface : Installed external ASPI interface
Gap handling : Appended to previous track
Used output format : User Defined Encoder
Selected bitrate : 1024 kBit/s
Quality : High
Add ID3 tag : No
Command line compressor : C:\Program Files (x86)\Exact Audio Copy\Flac\flac.exe
Additional command line options : -8 -V -T "ARTIST=%artist%" -T "TITLE=%title%" -T "ALBUM=%albumtitle%" -T "DATE=%year%" -T "TRACKNUMBER=%tracknr%" -T "GENRE=%genre%" -T "PERFORMER=%albuminterpret%" -T "COMPOSER=%composer%" %haslyrics%--tag-from-file=LYRICS="%lyricsfile%"%haslyrics% -T "ALBUMARTIST=%albumartist%" -T "DISCNUMBER=%cdnumber%" -T "TOTALDISCS=%totalcds%" -T "TOTALTRACKS=%numtracks%" -T "COMMENT=%comment%" %source% -o %dest%
TOC of the extracted CD
Track | Start | Length | Start sector | End sector
---------------------------------------------------------
1 | 0:00.00 | 1:50.18 | 0 | 8267
2 | 1:50.18 | 5:04.50 | 8268 | 31117
3 | 6:54.68 | 4:12.17 | 31118 | 50034
4 | 11:07.10 | 9:42.42 | 50035 | 93726
5 | 20:49.52 | 4:52.49 | 93727 | 115675
6 | 25:42.26 | 5:19.01 | 115676 | 139601
7 | 31:01.27 | 7:43.34 | 139602 | 174360
8 | 38:44.61 | 5:15.44 | 174361 | 198029
9 | 44:00.30 | 6:10.11 | 198030 | 225790
10 | 50:10.41 | 7:40.43 | 225791 | 260333
Track 1
Filename C:\Kwaku Kwaakye Obeng - 2003 - Afrijazz\01 - Greetings.wav
Pre-gap length 0:00:02.00
Peak level 100.0 %
Extraction speed 2.5 X
Track quality 99.9 %
Test CRC 3245B440
Copy CRC 3245B440
Track not present in AccurateRip database
Copy OK
Track 2
Filename C:\Kwaku Kwaakye Obeng - 2003 - Afrijazz\02 - Oprenten #6.wav
Pre-gap length 0:00:01.50
Peak level 100.0 %
Extraction speed 4.7 X
Track quality 100.0 %
Test CRC 19398CAA
Copy CRC 19398CAA
Track not present in AccurateRip database
Copy OK
Track 3
Filename C:\Kwaku Kwaakye Obeng - 2003 - Afrijazz\03 - Message.wav
Pre-gap length 0:00:01.50
Peak level 100.0 %
Extraction speed 5.1 X
Track quality 100.0 %
Test CRC 84EF9E88
Copy CRC 84EF9E88
Track not present in AccurateRip database
Copy OK
Track 4
Filename C:\Kwaku Kwaakye Obeng - 2003 - Afrijazz\04 - Kid's - Konko-Da.wav
Pre-gap length 0:00:01.50
Peak level 100.0 %
Extraction speed 6.3 X
Track quality 100.0 %
Test CRC 2CF738A6
Copy CRC 2CF738A6
Track not present in AccurateRip database
Copy OK
Track 5
Filename C:\Kwaku Kwaakye Obeng - 2003 - Afrijazz\05 - Akampa.wav
Pre-gap length 0:00:01.00
Peak level 89.9 %
Extraction speed 6.5 X
Track quality 100.0 %
Test CRC B87A63E2
Copy CRC B87A63E2
Track not present in AccurateRip database
Copy OK
Track 6
Filename C:\Kwaku Kwaakye Obeng - 2003 - Afrijazz\06 - 'Round Midnight.wav
Pre-gap length 0:00:01.50
Peak level 100.0 %
Extraction speed 7.1 X
Track quality 100.0 %
Test CRC 5D730539
Copy CRC 5D730539
Track not present in AccurateRip database
Copy OK
Track 7
Filename C:\Kwaku Kwaakye Obeng - 2003 - Afrijazz\07 - Ghana Gumbo.wav
Pre-gap length 0:00:01.50
Peak level 100.0 %
Extraction speed 6.8 X
Track quality 99.9 %
Test CRC B81BA9FB
Copy CRC B81BA9FB
Track not present in AccurateRip database
Copy OK
Track 8
Filename C:\Kwaku Kwaakye Obeng - 2003 - Afrijazz\08 - Fine Fine Baby.wav
Pre-gap length 0:00:01.50
Peak level 100.0 %
Extraction speed 7.9 X
Track quality 100.0 %
Test CRC 6A06DD6F
Copy CRC 6A06DD6F
Track not present in AccurateRip database
Copy OK
Track 9
Filename C:\Kwaku Kwaakye Obeng - 2003 - Afrijazz\09 - Worship.wav
Pre-gap length 0:00:01.50
Peak level 100.0 %
Extraction speed 7.2 X
Track quality 99.9 %
Test CRC B5CB25B8
Copy CRC B5CB25B8
Track not present in AccurateRip database
Copy OK
Track 10
Filename C:\Kwaku Kwaakye Obeng - 2003 - Afrijazz\10 - Thank You.wav
Pre-gap length 0:00:01.50
Peak level 100.0 %
Extraction speed 8.9 X
Track quality 100.0 %
Test CRC A0C5F6E5
Copy CRC A0C5F6E5
Track not present in AccurateRip database
Copy OK
None of the tracks are present in the AccurateRip database
No errors occurred
End of status report
==== Log checksum 976B7B4002D51C4791525B4EC32613DF97EFA475268079B3EC1200235368C3CC ====
 
Содержание индексной карты (.CUE)
REM GENRE "World Jazz"
REM DATE 2003
REM DISCID 700D8F0A
REM COMMENT "ExactAudioCopy v1.0b3"
PERFORMER "Kwaku Kwaakye Obeng"
TITLE "Afrijazz"
FILE "01 - Greetings.wav" WAVE
TRACK 01 AUDIO
TITLE "Greetings"
PERFORMER "Kwaku Kwaakye Obeng"
INDEX 01 00:00:00
TRACK 02 AUDIO
TITLE "Oprenten #6"
PERFORMER "Kwaku Kwaakye Obeng"
INDEX 00 01:48:55
FILE "02 - Oprenten #6.wav" WAVE
INDEX 01 00:00:00
TRACK 03 AUDIO
TITLE "Message"
PERFORMER "Kwaku Kwaakye Obeng"
INDEX 00 05:03:12
FILE "03 - Message.wav" WAVE
INDEX 01 00:00:00
TRACK 04 AUDIO
TITLE "Kid's - Konko-Da"
PERFORMER "Kwaku Kwaakye Obeng"
INDEX 00 04:10:54
FILE "04 - Kid's - Konko-Da.wav" WAVE
INDEX 01 00:00:00
TRACK 05 AUDIO
TITLE "Akampa"
PERFORMER "Kwaku Kwaakye Obeng"
INDEX 00 09:41:42
FILE "05 - Akampa.wav" WAVE
INDEX 01 00:00:00
TRACK 06 AUDIO
TITLE "'Round Midnight"
PERFORMER "Kwaku Kwaakye Obeng"
INDEX 00 04:51:11
FILE "06 - 'Round Midnight.wav" WAVE
INDEX 01 00:00:00
TRACK 07 AUDIO
TITLE "Ghana Gumbo"
PERFORMER "Kwaku Kwaakye Obeng"
INDEX 00 05:17:38
FILE "07 - Ghana Gumbo.wav" WAVE
INDEX 01 00:00:00
TRACK 08 AUDIO
TITLE "Fine Fine Baby"
PERFORMER "Kwaku Kwaakye Obeng"
INDEX 00 07:41:71
FILE "08 - Fine Fine Baby.wav" WAVE
INDEX 01 00:00:00
TRACK 09 AUDIO
TITLE "Worship"
PERFORMER "Kwaku Kwaakye Obeng"
INDEX 00 05:14:06
FILE "09 - Worship.wav" WAVE
INDEX 01 00:00:00
TRACK 10 AUDIO
TITLE "Thank You"
PERFORMER "Kwaku Kwaakye Obeng"
INDEX 00 06:08:48
FILE "10 - Thank You.wav" WAVE
INDEX 01 00:00:00
 
Об исполнителе (группе)
Kwaku Kwaakye Obeng is a master drummer from Ghana, West Africa. He has performed with many well-known Western stars, including Fleetwood Mac, Bill Laswell and Bootsy Collins, and traveled to do university lecture tours and festivals all over the world. His debut album, Awakening, was released in early 1998 by Yikes! Records.
 
Об альбоме (сборнике)
The record is called Afri-jazz. The sound is otherworldly, the rhythms- Africa with a 21st century jazz state of mind. This world belongs to master drummer Kwaku Kwaakye Obeng (aka KKO). He started out in the Royal Court of Ghana as a drummer, came to the U.S., and has since played with different sorts of kings; guys like Max Roach, Roy Hargrove and Anthony Braxton. The sounds found on this little plastic disc will take you back to a different time; one that never existed! Imagine Kenny Clarke born in the heart of Africa and you begin to get the picture. Did we mention the ultra groovy cover of "Round Midnight" for bass clarinet and tom toms? This is a terrific record; truly striking.
Alternative Press This music says something profound about homo sapiens’ rhythmic ingenuity and the enduring power of the drum (even our earliest ancestors had the funk, apparently) by
Rootsworld One of a kind, this one, a recording that unfolds one well-paced beat at a time, the sturdy percussive foundation of an enduring piece of work. jazzloft.com
 
Состав
Austerlitz, Paul, bass clarinet • Koomson, Gloria, claves • Austerlitz, Paul, claves • Bynum, Taylor Ho, cornet • Brown, Wes, double bass • Koomson, Gloria, drum • Lawal, Ismail, drum • Penn, Jeff, drum • Austerlitz, Paul, drum • Lawal, Ismail, drumset • Obeng, Kwaku Kwaakye, drumset • Veal, Michael, drumset • Bynum, Taylor Ho, flugelhorn • Lawal, Ismail, gong • Kanza, Dominic, guitar • Penn, Jeff, percussion • Obeng, Kwaku Kwaakye, percussion • Lowe, William, trombone • Hoggard, Jay, vocals • Obeng, Kwaku Kwaakye, vocals • Arbo, Rani, vocals • Kessel, Scott, vocals • Hoggard, Jay, xylophone
12:13
308
Нет комментариев. Ваш будет первым!