Поиск

(World Fusion, African Jazz) Dudu Pukwana - In The Townships - (1973) - 1987, FLAC (tracks+.cue), lossless

Треклист:
Dudu Pukwana / In The Townships
Жанр: World Fusion, African Jazz
Страна-производитель диска: U.K.
Год издания диска: (1973) - 1987
Издатель (лейбл): Earthworks
Номер по каталогу: CDEWV 5
Страна: Port Elizabeth, South Africa
Аудиокодек: FLAC (*.flac)
Тип рипа: tracks+.cue
Битрейт аудио: lossless
Продолжительность: 0035:29
Источник (релизер): сеть
Наличие сканов в содержимом раздачи: да
Треклист:
01. Baloyi [05:17]
02. Ezilalini [06:44]
03. Zukude [05:43]
04. Sonia [03:30]
05. Angel Nemali [06:04]
06. Nobomyu [03:59]
07. Sekela Khuluma [04:10]
 
Лог создания рипа
Exact Audio Copy V1.0 beta 1 from 15. November 2010
EAC extraction logfile from 1. December 2011, 7:13
Dudu Pukwana / In The Townships
Used drive : TSSTcorpCDDVDW SH-S203N Adapter: 0 ID: 2
Read mode : Secure
Utilize accurate stream : Yes
Defeat audio cache : Yes
Make use of C2 pointers : No
Read offset correction : 6
Overread into Lead-In and Lead-Out : No
Fill up missing offset samples with silence : Yes
Delete leading and trailing silent blocks : No
Null samples used in CRC calculations : Yes
Used interface : Installed external ASPI interface
Gap handling : Appended to previous track
Used output format : User Defined Encoder
Selected bitrate : 768 kBit/s
Quality : High
Add ID3 tag : No
Command line compressor : C:\Program Files\Exact Audio Copy-NEW\Flac\flac.exe
Additional command line options : -8 -V -T "ARTIST=%a" -T "TITLE=%t" -T "ALBUM=%g" -T "DATE=%y" -T "TRACKNUMBER=%n" -T "TOTALTRACKS=%x" -T "GENRE=%m" -T "ALBUMARTIST=%v" -T "ALBUM ARTIST=%v" -T "COMMENT=EAC V1.01b1, Secure Mode, Test & Copy, AccurateRip, FL
TOC of the extracted CD
Track | Start | Length | Start sector | End sector
---------------------------------------------------------
1 | 0:00.72 | 5:24.05 | 72 | 24376
2 | 5:25.02 | 6:49.33 | 24377 | 55084
3 | 12:14.35 | 5:48.30 | 55085 | 81214
4 | 18:02.65 | 3:36.20 | 81215 | 97434
5 | 21:39.10 | 6:10.72 | 97435 | 125256
6 | 27:50.07 | 4:05.50 | 125257 | 143681
7 | 31:55.57 | 4:10.15 | 143682 | 162446
Track 1
Filename J:\New Rips\Dudu Pukwana - In The Townships (1987) [FLAC]\01 - Baloyi.wav
Pre-gap length 0:00:02.72
Peak level 93.5 %
Extraction speed 1.7 X
Track quality 99.9 %
Test CRC AC60DE4B
Copy CRC AC60DE4B
Cannot be verified as accurate (confidence 1) [CCDC095F], AccurateRip returned [856ADE7A]
Copy OK
Track 2
Filename J:\New Rips\Dudu Pukwana - In The Townships (1987) [FLAC]\02 - Ezilalini.wav
Pre-gap length 0:00:07.00
Peak level 93.9 %
Extraction speed 2.0 X
Track quality 99.9 %
Test CRC 04C002D6
Copy CRC 04C002D6
Cannot be verified as accurate (confidence 1) [51B6B241], AccurateRip returned [4B08F505]
Copy OK
Track 3
Filename J:\New Rips\Dudu Pukwana - In The Townships (1987) [FLAC]\03 - Zukude.wav
Pre-gap length 0:00:05.00
Peak level 89.4 %
Extraction speed 2.5 X
Track quality 100.0 %
Test CRC 0488CB4C
Copy CRC 0488CB4C
Cannot be verified as accurate (confidence 1) [88500456], AccurateRip returned [A19AD49B]
Copy OK
Track 4
Filename J:\New Rips\Dudu Pukwana - In The Townships (1987) [FLAC]\04 - Sonia.wav
Pre-gap length 0:00:05.00
Peak level 95.7 %
Extraction speed 2.5 X
Track quality 100.0 %
Test CRC 0E3E3A6D
Copy CRC 0E3E3A6D
Cannot be verified as accurate (confidence 1) [98AFBBC3], AccurateRip returned [10E523B4]
Copy OK
Track 5
Filename J:\New Rips\Dudu Pukwana - In The Townships (1987) [FLAC]\05 - Angel Nemali.wav
Pre-gap length 0:00:06.00
Peak level 100.0 %
Extraction speed 2.8 X
Track quality 100.0 %
Test CRC 73D681B1
Copy CRC 73D681B1
Cannot be verified as accurate (confidence 1) [8EA9792B], AccurateRip returned [1D0B4864]
Copy OK
Track 6
Filename J:\New Rips\Dudu Pukwana - In The Townships (1987) [FLAC]\06 - Nobomyu.wav
Pre-gap length 0:00:06.00
Peak level 83.0 %
Extraction speed 2.8 X
Track quality 100.0 %
Test CRC 2EF9BAD4
Copy CRC 2EF9BAD4
Cannot be verified as accurate (confidence 1) [D719C2DD], AccurateRip returned [43BBE0F3]
Copy OK
Track 7
Filename J:\New Rips\Dudu Pukwana - In The Townships (1987) [FLAC]\07 - Sekela Khuluma.wav
Pre-gap length 0:00:06.00
Peak level 94.5 %
Extraction speed 3.0 X
Track quality 100.0 %
Test CRC 43047BEF
Copy CRC 43047BEF
Cannot be verified as accurate (confidence 1) [004583A4], AccurateRip returned [02804488]
Copy OK
No tracks could be verified as accurate
You may have a different pressing from the one(s) in the database
No errors occurred
End of status report
==== Log checksum E6D66BA8BFD0671569F960A6B88E2E6DFAB4D5D93144C866CCB1890BD04D1E3E ====
 
Содержание индексной карты (.CUE)
REM GENRE Jazz
REM DATE 1987
REM DISCID 52087507
REM COMMENT "ExactAudioCopy v1.0b1"
PERFORMER "Dudu Pukwana"
TITLE "In The Townships"
FILE "01 - Baloyi.flac" WAVE
TRACK 01 AUDIO
TITLE "Baloyi"
PERFORMER "Dudu Pukwana"
PREGAP 00:00:72
INDEX 01 00:00:00
TRACK 02 AUDIO
TITLE "Ezilalini"
PERFORMER "Dudu Pukwana"
INDEX 00 05:17:05
FILE "02 - Ezilalini.flac" WAVE
INDEX 01 00:00:00
TRACK 03 AUDIO
TITLE "Zukude"
PERFORMER "Dudu Pukwana"
INDEX 00 06:44:33
FILE "03 - Zukude.flac" WAVE
INDEX 01 00:00:00
TRACK 04 AUDIO
TITLE "Sonia"
PERFORMER "Dudu Pukwana"
INDEX 00 05:43:30
FILE "04 - Sonia.flac" WAVE
INDEX 01 00:00:00
TRACK 05 AUDIO
TITLE "Angel Nemali"
PERFORMER "Dudu Pukwana"
INDEX 00 03:30:20
FILE "05 - Angel Nemali.flac" WAVE
INDEX 01 00:00:00
TRACK 06 AUDIO
TITLE "Nobomyu"
PERFORMER "Dudu Pukwana"
INDEX 00 06:04:72
FILE "06 - Nobomyu.flac" WAVE
INDEX 01 00:00:00
TRACK 07 AUDIO
TITLE "Sekela Khuluma"
PERFORMER "Dudu Pukwana"
INDEX 00 03:59:50
FILE "07 - Sekela Khuluma.flac" WAVE
INDEX 01 00:00:00
 
Лог проверки качества
-----------------------
DON'T MODIFY THIS FILE
-----------------------
PERFORMER: auCDtect Task Manager, ver. 1.5.1RC6 build 1.5.1.7
Copyright (c) 2008-2010 y-soft. All rights reserved
http://y-soft.org
ANALYZER: auCDtect: CD records authenticity detector, version 0.8.2
Copyright (c) 2004 Oleg Berngardt. All rights reserved.
Copyright (c) 2004 Alexander Djourik. All rights reserved.
FILE: 07 - Sekela Khuluma.flac
Size: 26978182 Hash: 10DB31E9F4F2C3B310EC85E2B7F9F526 Accuracy: -m0
Conclusion: CDDA 100%
Signature: 5122D8635E76AF6563E839B129F733358C531EC2
FILE: 06 - Nobomyu.flac
Size: 25542138 Hash: C818D7C5DE0B88B1268C353FBEEF8C0E Accuracy: -m0
Conclusion: CDDA 100%
Signature: 3B044C43A33E65ADC47D3133BADB72AF2E536BD8
FILE: 05 - Angel Nemali.flac
Size: 39038163 Hash: 3D74560617A9234ABF5F52CC04611C97 Accuracy: -m0
Conclusion: CDDA 100%
Signature: C970BBEFDC892E1F995810B3E953E0470B19829A
FILE: 04 - Sonia.flac
Size: 17893575 Hash: 1A040E960EFD2B2E7C4356DDC61F0507 Accuracy: -m0
Conclusion: CDDA 99%
Signature: 753001812672082166BBC54CCEC551544E078F62
FILE: 03 - Zukude.flac
Size: 31826100 Hash: 100256B743EACAD97BBC6FB2C3703D11 Accuracy: -m0
Conclusion: CDDA 100%
Signature: D79F3A443CF7C3DCA371CBFC8DD8A55916224830
FILE: 02 - Ezilalini.flac
Size: 45247387 Hash: 209EB782FB7391BC960698A40FAC63B0 Accuracy: -m0
Conclusion: CDDA 100%
Signature: B39D0A0FFE6392B3FE9CFB7BF3FF6D2FE91BB53A
FILE: 01 - Baloyi.flac
Size: 36902204 Hash: E77CB2060A72D0EB3CCFEAA122DCEE44 Accuracy: -m0
Conclusion: CDDA 100%
Signature: 23A4FCB6378B875A49C9F31BBD8884D5D7B3B20C
 
Состав
Arrangements, Percussion, Piano, Saxophone, Vocals Dudu Pukwana
Percussion, Trumpet, Vocals Mongezi Feza
Percussion, Saxophone, Vocals Bizo Mnggikana
Drums Louis Moholo
Bass Harry Miller
00:12
283
Нет комментариев. Ваш будет первым!