Поиск

(World Fusion, African Jazz, Avant-Garde Jazz) Dudu Pukwana - Ubagile - 1999, FLAC (image+.cue), lossless

Треклист:
Dudu Pukwana - Ubagile

Жанр: World Fusion, African Jazz, Avant-Garde Jazz
Страна-производитель диска: Germany
Год издания диска: 1999
Издатель (лейбл): Jazz Colours / DA music
Номер по каталогу: 874744-2
Страна: Port Elizabeth, South Africa
Аудиокодек: FLAC (*.flac)
Тип рипа: image+.cue
Битрейт аудио: lossless
Продолжительность: 00:37:38
Источник (релизер): dreadbull
Наличие сканов в содержимом раздачи: да
01. Diamond Express [08:14]
02. Bird Lives [08:54]
03. Ubagile [See Saw] [08:00]
04. Madodana [The Young Ons] [07:52]
05. Tete And Barbs In My Mind [04:35]

Recorded at Island Studios, London, autumn 1975
 
Лог создания рипа
Exact Audio Copy V1.0 beta 3 from 29. August 2011
EAC extraction logfile from 17. February 2012, 18:53
Dudu Pukwana / Ubagile
Used drive : ASUS DRW-22B2L Adapter: 0 ID: 1
Read mode : Secure
Utilize accurate stream : Yes
Defeat audio cache : Yes
Make use of C2 pointers : No
Read offset correction : 6
Overread into Lead-In and Lead-Out : No
Fill up missing offset samples with silence : Yes
Delete leading and trailing silent blocks : No
Null samples used in CRC calculations : Yes
Used interface : Native Win32 interface for Win NT & 2000
Used output format : User Defined Encoder
Selected bitrate : 128 kBit/s
Quality : High
Add ID3 tag : Yes
Command line compressor : C:\Program Files\FLAC\flac.exe
Additional command line options : -8 -V -T "ARTIST=%artist%" -T "TITLE=%title%" -T "ALBUM=%albumtitle%" -T "DATE=%year%" -T "TRACKNUMBER=%tracknr%" -T "GENRE=%genre%" -T "PERFORMER=%albuminterpret%" -T "COMPOSER=%composer%" %haslyrics%--tag-from-file=LYRICS="%lyricsfile%"%haslyrics% -T "ALBUMARTIST=%albumartist%" -T "DISCNUMBER=%cdnumber%" -T "TOTALDISCS=%totalcds%" -T "TOTALTRACKS=%numtracks%" -T "COMMENT=%comment%" %source% -o %dest%
TOC of the extracted CD
Track | Start | Length | Start sector | End sector
---------------------------------------------------------
1 | 0:00.00 | 8:17.12 | 0 | 37286
2 | 8:17.12 | 8:57.13 | 37287 | 77574
3 | 17:14.25 | 8:04.00 | 77575 | 113874
4 | 25:18.25 | 7:56.27 | 113875 | 149601
5 | 33:14.52 | 4:35.25 | 149602 | 170251
Range status and errors
Selected range
Filename D:\Donkey Files\Dudu Pukwana - Ubagile (1975; Jazz Colours) [eac-flac-scans] byDrBull\Dudu Pukwana - Ubagile.wav
Peak level 99.1 %
Extraction speed 3.1 X
Range quality 100.0 %
Test CRC D47B0D9F
Copy CRC D47B0D9F
Copy OK
No errors occurred
AccurateRip summary
Track 1 not present in database
Track 2 not present in database
Track 3 not present in database
Track 4 not present in database
Track 5 not present in database
None of the tracks are present in the AccurateRip database
End of status report
==== Log checksum 92701912FB9907947CB127D696FD49FAC469F8A6B63B261DD5B614D668679873 ====
 
Содержание индексной карты (.CUE)
REM DISCID 4308DE05
REM COMMENT "ExactAudioCopy v1.0b3"
PERFORMER "Dudu Pukwana"
TITLE "Ubagile"
FILE "Dudu Pukwana - Ubagile.flac" WAVE
TRACK 01 AUDIO
TITLE "Diamond Express"
PERFORMER "Dudu Pukwana"
ISRC <cH_49807801
INDEX 01 00:00:00
TRACK 02 AUDIO
TITLE "Bird Lives"
PERFORMER "Dudu Pukwana"
ISRC <cH_49807802
INDEX 00 08:14:40
INDEX 01 08:17:12
TRACK 03 AUDIO
TITLE "Ubagile [See Saw]"
PERFORMER "Dudu Pukwana"
ISRC <cH_49807803
INDEX 00 17:11:60
INDEX 01 17:14:25
TRACK 04 AUDIO
TITLE "Madodana [The Young Ons]"
PERFORMER "Dudu Pukwana"
ISRC <cH_49807804
INDEX 00 25:15:22
INDEX 01 25:18:25
TRACK 05 AUDIO
TITLE "Tete And Barbs In My Mind"
PERFORMER "Dudu Pukwana"
ISRC <cH_49807805
INDEX 00 33:10:70
INDEX 01 33:14:52
 
Состав
Dudu Pukwana - alto sax
Mongezi Feza - trumpet
Lucky Ranko - guitar
Louis Moholo - drums & percussion
#1-4:
Frank Roberts - keyboards
Ernest Mothole - electric & acoustic bass
James Meine - drums
#5:
Nick Evans - trombone
Elton Dean - saxello
Keith Tippett - piano
Victor Nitoni - bass
02:54
269
Нет комментариев. Ваш будет первым!