Поиск

(World, Folk, Gagaku, Koto) [CD] Chieko Mori - Katyou Fuugetsu - 2006, FLAC (tracks+.cue), lossless

(World, Folk, Gagaku, Koto) [CD] Chieko Mori - Katyou Fuugetsu - 2006, FLAC (tracks+.cue), lossless
Треклист:
Chieko Mori / Katyou Fuugetsu
Жанр: World, Folk, Gagaku, Koto
Носитель: CD
Страна-производитель диска (релиза): Italy
Год издания: 2006
Издатель (лейбл): Dunya Records
Номер по каталогу: fy 8111
Страна исполнителя (группы): Япония
Аудиокодек: FLAC (*.flac)
Тип рипа: tracks+.cue
Битрейт аудио: lossless
Продолжительность: 00:50:18
Источник (релизер): ?
Наличие сканов в содержимом раздачи: буклет
Треклист:
01. Light Up
02. Midare
03. Sky Travel
04. Chidori no Kyoku
05. Kimono Dance
06. Aki no Kyoku
07. Fantasy
 
Лог создания рипа
X Lossless Decoder version 20100123 (115.4)
XLD extraction logfile from 2010-01-23 20:28:07 +0100
Chieko Mori / Katyou Fuugetsu
Used drive : TSSTcorp CD/DVDW SH-W162L (revision LC03)
Use cdparanoia mode : YES (CDParanoia III 10.2 engine)
Disable audio cache : OK for the drive with cache less than 2750KB
Make use of C2 pointers : NO
Read offset correction : 6
Max retry count : 100
TOC of the extracted CD
Track | Start | Length | Start sector | End sector
---------------------------------------------------------
1 | 00:00:00 | 01:33:13 | 0 | 6987
2 | 01:33:13 | 11:01:66 | 6988 | 56628
3 | 12:35:04 | 03:03:70 | 56629 | 70423
4 | 15:38:74 | 14:24:23 | 70424 | 135246
5 | 30:03:22 | 08:35:18 | 135247 | 173889
6 | 38:38:40 | 10:00:03 | 173890 | 218892
7 | 48:38:43 | 01:41:10 | 218893 | 226477
All Tracks
Album gain : -2.29 dB
Peak : 0.975769
Track 01
Filename : /Users/giampiero/Desktop/rip/01 - Light Up.flac
Pre-gap length : 00:02:00
Track gain : -0.37 dB
Peak : 0.843536
CRC32 hash (test run) : EB3E376D
CRC32 hash : EB3E376D
CRC32 hash (skip zero) : A4714ABA
AccurateRip signature : 7406835D
->Accurately ripped! (confidence 1)
Statistics
Read error : 0
Skipped (treated as error) : 0
Edge jitter error (maybe fixed) : 0
Atom jitter error (maybe fixed) : 0
Drift error (maybe fixed) : 0
Dropped bytes error (maybe fixed) : 0
Duplicated bytes error (maybe fixed) : 0
Inconsistency in error sectors : 0
Track 02
Filename : /Users/giampiero/Desktop/rip/02 - Midare.flac
Track gain : -2.57 dB
Peak : 0.975769
CRC32 hash (test run) : 56B96ACC
CRC32 hash : 56B96ACC
CRC32 hash (skip zero) : 11BAEDF0
AccurateRip signature : 8BC627B7
->Accurately ripped! (confidence 1)
Statistics
Read error : 0
Skipped (treated as error) : 0
Edge jitter error (maybe fixed) : 0
Atom jitter error (maybe fixed) : 0
Drift error (maybe fixed) : 0
Dropped bytes error (maybe fixed) : 0
Duplicated bytes error (maybe fixed) : 0
Inconsistency in error sectors : 0
Track 03
Filename : /Users/giampiero/Desktop/rip/03 - Sky Travel.flac
Track gain : -1.90 dB
Peak : 0.788818
CRC32 hash (test run) : DE8671A2
CRC32 hash : DE8671A2
CRC32 hash (skip zero) : E3761EC2
AccurateRip signature : B9C0E423
->Accurately ripped! (confidence 1)
Statistics
Read error : 0
Skipped (treated as error) : 0
Edge jitter error (maybe fixed) : 0
Atom jitter error (maybe fixed) : 0
Drift error (maybe fixed) : 0
Dropped bytes error (maybe fixed) : 0
Duplicated bytes error (maybe fixed) : 0
Inconsistency in error sectors : 0
Track 04
Filename : /Users/giampiero/Desktop/rip/04 - Chidori no Kyoku.flac
Track gain : -0.89 dB
Peak : 0.939941
CRC32 hash (test run) : 046275D1
CRC32 hash : 046275D1
CRC32 hash (skip zero) : 614C32E8
AccurateRip signature : 34E02837
->Accurately ripped! (confidence 1)
Statistics
Read error : 0
Skipped (treated as error) : 0
Edge jitter error (maybe fixed) : 0
Atom jitter error (maybe fixed) : 0
Drift error (maybe fixed) : 0
Dropped bytes error (maybe fixed) : 0
Duplicated bytes error (maybe fixed) : 0
Inconsistency in error sectors : 0
Track 05
Filename : /Users/giampiero/Desktop/rip/05 - Kimono Dance.flac
Track gain : -3.15 dB
Peak : 0.910614
CRC32 hash (test run) : F47555B2
CRC32 hash : F47555B2
CRC32 hash (skip zero) : 2CAFC6A4
AccurateRip signature : 5D2ADC04
->Accurately ripped! (confidence 1)
Statistics
Read error : 0
Skipped (treated as error) : 0
Edge jitter error (maybe fixed) : 0
Atom jitter error (maybe fixed) : 0
Drift error (maybe fixed) : 0
Dropped bytes error (maybe fixed) : 0
Duplicated bytes error (maybe fixed) : 0
Inconsistency in error sectors : 0
Track 06
Filename : /Users/giampiero/Desktop/rip/06 - Aki no Kyoku.flac
Track gain : -2.60 dB
Peak : 0.975769
CRC32 hash (test run) : B2CBE4C6
CRC32 hash : B2CBE4C6
CRC32 hash (skip zero) : 0F88F470
AccurateRip signature : 6834AAED
->Accurately ripped! (confidence 1)
Statistics
Read error : 0
Skipped (treated as error) : 0
Edge jitter error (maybe fixed) : 0
Atom jitter error (maybe fixed) : 0
Drift error (maybe fixed) : 0
Dropped bytes error (maybe fixed) : 0
Duplicated bytes error (maybe fixed) : 0
Inconsistency in error sectors : 0
Track 07
Filename : /Users/giampiero/Desktop/rip/07 - Fantasy.flac
Track gain : 0.80 dB
Peak : 0.804443
CRC32 hash (test run) : EDCB12BB
CRC32 hash : EDCB12BB
CRC32 hash (skip zero) : 4CA35B33
AccurateRip signature : B4551489
->Rip may not be accurate.
Statistics
Read error : 0
Skipped (treated as error) : 0
Edge jitter error (maybe fixed) : 0
Atom jitter error (maybe fixed) : 0
Drift error (maybe fixed) : 0
Dropped bytes error (maybe fixed) : 0
Duplicated bytes error (maybe fixed) : 0
Inconsistency in error sectors : 0
No errors occurred
End of status report
 
Содержание индексной карты (.CUE)
TITLE "Katyou Fuugetsu"
PERFORMER "Chieko Mori"
REM GENRE "Folk"
REM DATE 2006
FILE "01 - Light Up.wav" WAVE
TRACK 01 AUDIO
TITLE "Light Up"
INDEX 01 00:00:00
FILE "02 - Midare.wav" WAVE
TRACK 02 AUDIO
TITLE "Midare"
INDEX 01 00:00:00
FILE "03 - Sky Travel.wav" WAVE
TRACK 03 AUDIO
TITLE "Sky Travel"
INDEX 01 00:00:00
FILE "04 - Chidori no Kyoku.wav" WAVE
TRACK 04 AUDIO
TITLE "Chidori no Kyoku"
INDEX 01 00:00:00
FILE "05 - Kimono Dance.wav" WAVE
TRACK 05 AUDIO
TITLE "Kimono Dance"
INDEX 01 00:00:00
FILE "06 - Aki no Kyoku.wav" WAVE
TRACK 06 AUDIO
TITLE "Aki no Kyoku"
INDEX 01 00:00:00
FILE "07 - Fantasy.wav" WAVE
TRACK 07 AUDIO
TITLE "Fantasy"
INDEX 01 00:00:00
 
Об исполнителе (группе)
Chieko Mori is a composer and koto player from Tokyo, Japan. She began learning traditional koto playing and Japanese dance at the age of three, and turned to composing her own music after graduating from university in Tokyo (SFC). Her style of koto playing draws on the classical schools in which she has been trained, but adopts a fresh approach that creates new possibilities for improvising and imagination.
Discogs
 
Об альбоме (сборнике)
21:27
253
Нет комментариев. Ваш будет первым!