Поиск

(Vocal, World Fusion, French Chanson) [CD] Andre Minvielle & Lionel Suarez - Tandem - 2011, FLAC (tracks+.cue), lossless

(Vocal, World Fusion, French Chanson) [CD] Andre Minvielle & Lionel Suarez - Tandem - 2011, FLAC (tracks+.cue), lossless
Треклист:
Andre Minvielle & Lionel Suarez / Tandem
Жанр: Vocal, World Fusion, French Chanson
Носитель: CD
Страна-производитель диска (релиза): France
Год издания: 2011
Издатель (лейбл): E-Motive / Bretelles Prod / La complexe articole
Номер по каталогу: EM 0101
Страна исполнителя (группы): France
Аудиокодек: FLAC (*.flac)
Тип рипа: tracks+.cue
Битрейт аудио: lossless
Продолжительность: 00:47:26
Источник (релизер): dtromp
Наличие сканов в содержимом раздачи: да
Треклист:
1 Balagora 4’50 (André Minvielle)
2 C’est Non 5’50 (Claude Nougaro - André Minvielle)
3 Le béret 3’18 (André Minvielle - Lionel Suarez)
4 Juliette et Lucie 4’05 (André Minvielle - Lionel Suarez & Juliette Minvielle)
5 Mama Cucurbita 6’09 (André Minvielle - Bernard Lubat)
6 L’Alambic 4’11 (André Minvielle - Lionel Suarez)
7 Totem 4’05 (André Minvielle - Lionel Suarez)
8 Cançon 4’01 (André Minvielle - Lionel Suarez)
9 Lagenaria 7’25 (André Minvielle)
10 Du cirque 3’27 (André Minvielle - Lionel Suarez)
youtube.com
 
Лог создания рипа
Exact Audio Copy V1.0 beta 1 from 15. November 2010
EAC extraction logfile from 28. September 2011, 18:02
Andre Minvielle & Lionel Suarez / Tandem
Used drive : PLEXTOR DVDR PX-860A Adapter: 0 ID: 0
Read mode : Secure
Utilize accurate stream : Yes
Defeat audio cache : Yes
Make use of C2 pointers : No
Read offset correction : 96
Overread into Lead-In and Lead-Out : No
Fill up missing offset samples with silence : Yes
Delete leading and trailing silent blocks : No
Null samples used in CRC calculations : Yes
Used interface : Native Win32 interface for Win NT & 2000
Gap handling : Appended to previous track
Used output format : User Defined Encoder
Selected bitrate : 1024 kBit/s
Quality : High
Add ID3 tag : No
Command line compressor : C:\Program Files\Exact Audio Copy\Flac\flac.exe
Additional command line options : -8 -V -T "ARTIST=%a" -T "TITLE=%t" -T "ALBUM=%g" -T "DATE=%y" -T "TRACKNUMBER=%n" -T "TOTALTRACKS=%x" -T "GENRE=%m" -T "ALBUM ARTIST=%v" -T "ALBUMARTIST=%v" -T "COMMENT=EAC V1.0 beta 1, Secure Mode, Test & Copy, AccurateRip
TOC of the extracted CD
Track | Start | Length | Start sector | End sector
---------------------------------------------------------
1 | 0:00.00 | 4:47.16 | 0 | 21540
2 | 4:47.16 | 5:50.34 | 21541 | 47824
3 | 10:37.50 | 3:21.39 | 47825 | 62938
4 | 13:59.14 | 4:08.12 | 62939 | 81550
5 | 18:07.26 | 6:11.58 | 81551 | 109433
6 | 24:19.09 | 4:08.45 | 109434 | 128078
7 | 28:27.54 | 4:07.30 | 128079 | 146633
8 | 32:35.09 | 4:03.21 | 146634 | 164879
9 | 36:38.30 | 7:23.27 | 164880 | 198131
10 | 44:01.57 | 3:24.27 | 198132 | 213458
Track 1
Filename S:\DL\Andre Minvielle & Lionel Suarez - Tandem (2011) [FLAC]\01 - Balagora.wav
Pre-gap length 0:00:02.00
Peak level 98.8 %
Extraction speed 4.1 X
Track quality 99.9 %
Test CRC 32E862E6
Copy CRC 32E862E6
Track not present in AccurateRip database
Copy OK
Track 2
Filename S:\DL\Andre Minvielle & Lionel Suarez - Tandem (2011) [FLAC]\02 - C'est Non.wav
Pre-gap length 0:00:01.28
Peak level 98.8 %
Extraction speed 5.3 X
Track quality 100.0 %
Test CRC 6BD62234
Copy CRC 6BD62234
Track not present in AccurateRip database
Copy OK
Track 3
Filename S:\DL\Andre Minvielle & Lionel Suarez - Tandem (2011) [FLAC]\03 - Le beret.wav
Pre-gap length 0:00:00.58
Peak level 98.8 %
Extraction speed 5.4 X
Track quality 100.0 %
Test CRC 5A5F3BC0
Copy CRC 5A5F3BC0
Track not present in AccurateRip database
Copy OK
Track 4
Filename S:\DL\Andre Minvielle & Lionel Suarez - Tandem (2011) [FLAC]\04 - Juliette et Lucie.wav
Pre-gap length 0:00:01.31
Peak level 98.8 %
Extraction speed 5.8 X
Track quality 100.0 %
Test CRC 983F544F
Copy CRC 983F544F
Track not present in AccurateRip database
Copy OK
Track 5
Filename S:\DL\Andre Minvielle & Lionel Suarez - Tandem (2011) [FLAC]\05 - Mama Cucurbita.wav
Pre-gap length 0:00:03.11
Peak level 98.8 %
Extraction speed 6.5 X
Track quality 100.0 %
Test CRC A0E84568
Copy CRC A0E84568
Track not present in AccurateRip database
Copy OK
Track 6
Filename S:\DL\Andre Minvielle & Lionel Suarez - Tandem (2011) [FLAC]\06 - L'Alambic.wav
Pre-gap length 0:00:04.06
Peak level 98.8 %
Extraction speed 6.7 X
Track quality 100.0 %
Test CRC D2D38FEC
Copy CRC D2D38FEC
Track not present in AccurateRip database
Copy OK
Track 7
Filename S:\DL\Andre Minvielle & Lionel Suarez - Tandem (2011) [FLAC]\07 - Totem.wav
Pre-gap length 0:00:04.11
Peak level 98.8 %
Extraction speed 6.1 X
Track quality 99.9 %
Test CRC BF1B94E3
Copy CRC BF1B94E3
Track not present in AccurateRip database
Copy OK
Track 8
Filename S:\DL\Andre Minvielle & Lionel Suarez - Tandem (2011) [FLAC]\08 - Cancon.wav
Pre-gap length 0:00:00.68
Peak level 98.8 %
Extraction speed 7.3 X
Track quality 100.0 %
Test CRC D8A22F62
Copy CRC D8A22F62
Track not present in AccurateRip database
Copy OK
Track 9
Filename S:\DL\Andre Minvielle & Lionel Suarez - Tandem (2011) [FLAC]\09 - Lagenaria.wav
Pre-gap length 0:00:02.07
Peak level 98.8 %
Extraction speed 8.1 X
Track quality 100.0 %
Test CRC F9E0FA77
Copy CRC F9E0FA77
Track not present in AccurateRip database
Copy OK
Track 10
Filename S:\DL\Andre Minvielle & Lionel Suarez - Tandem (2011) [FLAC]\10 - Du cirque.wav
Pre-gap length 0:00:00.41
Peak level 98.8 %
Extraction speed 7.7 X
Track quality 100.0 %
Test CRC CFEB2A35
Copy CRC CFEB2A35
Track not present in AccurateRip database
Copy OK
None of the tracks are present in the AccurateRip database
No errors occurred
End of status report
==== Log checksum 28296074E76D8E9AA0AC7828CCDEB1F7D1F438AC588BBCF1AC75CA99E2B707B4 ====
 
Содержание индексной карты (.CUE)
REM GENRE Jazz
REM DATE 2011
REM DISCID 8C0B1E0A
REM COMMENT "ExactAudioCopy v1.0b1"
PERFORMER "Andre Minvielle & Lionel Suarez"
TITLE "Tandem"
FILE "01 - Balagora.wav" WAVE
TRACK 01 AUDIO
TITLE "Balagora"
PERFORMER "Andre Minvielle & Lionel Suarez"
INDEX 01 00:00:00
TRACK 02 AUDIO
TITLE "C'est Non"
PERFORMER "Andre Minvielle & Lionel Suarez"
INDEX 00 04:45:63
FILE "02 - C'est Non.wav" WAVE
INDEX 01 00:00:00
TRACK 03 AUDIO
TITLE "Le beret"
PERFORMER "Andre Minvielle & Lionel Suarez"
INDEX 00 05:49:51
FILE "03 - Le beret.wav" WAVE
INDEX 01 00:00:00
TRACK 04 AUDIO
TITLE "Juliette et Lucie"
PERFORMER "Andre Minvielle & Lionel Suarez"
INDEX 00 03:20:08
FILE "04 - Juliette et Lucie.wav" WAVE
INDEX 01 00:00:00
TRACK 05 AUDIO
TITLE "Mama Cucurbita"
PERFORMER "Andre Minvielle & Lionel Suarez"
INDEX 00 04:05:01
FILE "05 - Mama Cucurbita.wav" WAVE
INDEX 01 00:00:00
TRACK 06 AUDIO
TITLE "L'Alambic"
PERFORMER "Andre Minvielle & Lionel Suarez"
INDEX 00 06:07:52
FILE "06 - L'Alambic.wav" WAVE
INDEX 01 00:00:00
TRACK 07 AUDIO
TITLE "Totem"
PERFORMER "Andre Minvielle & Lionel Suarez"
INDEX 00 04:04:34
FILE "07 - Totem.wav" WAVE
INDEX 01 00:00:00
TRACK 08 AUDIO
TITLE "Cancon"
PERFORMER "Andre Minvielle & Lionel Suarez"
INDEX 00 04:06:37
FILE "08 - Cancon.wav" WAVE
INDEX 01 00:00:00
TRACK 09 AUDIO
TITLE "Lagenaria"
PERFORMER "Andre Minvielle & Lionel Suarez"
INDEX 00 04:01:14
FILE "09 - Lagenaria.wav" WAVE
INDEX 01 00:00:00
TRACK 10 AUDIO
TITLE "Du cirque"
PERFORMER "Andre Minvielle & Lionel Suarez"
INDEX 00 07:22:61
FILE "10 - Du cirque.wav" WAVE
INDEX 01 00:00:00
 
Об исполнителе (группе)
 
Состав
André Minvielle vocals, scat, rap, percussion
Lionel Suarez accordion
19:12
312
Нет комментариев. Ваш будет первым!