Поиск

(Vocal,R&B,Soul,Jazz) James Ingram - Always You - 1993, FLAC (tracks+.cue), lossless

(Vocal,R&B,Soul,Jazz) James Ingram - Always You - 1993, FLAC (tracks+.cue), lossless
Треклист:
James Ingram - Always You
Жанр: Vocal,R&B,Soul,Jazz
Год выпуска диска: 1993
Производитель диска: [WB]USA
Аудио кодек: FLAC
Тип рипа: tracks+.cue
Битрейт аудио: lossless
Продолжительность: 53:35
Трэклист:
01 - Someone Like You - 4:24
02 - Let Me Love You This Way -4:14
03 - Always You - 4:38
04 - Treat Her Right - 5:04
05 - A Baby Born - 6:16
06 - This Is The Night - 5:05
07 - You Never Know What You Got - 6:22
08 - Too Much For This Heart 5:24
09 - Sing For The Children - 5:07
10 - Any Kind Of Love - 6:56
Доп. информация:
Featuring:
Keith Thomas - keyboards & bass programming
Mark Hammond - drum programming
Tom Bell - drums
Wayne Linsey - drums,keyboards programming
Jerry McPherson - guitar
Carios Rios - guitar
Larry Kempel - bass
Leonard Castro - percussionist
Paul Jackson - guitar solo
Jerry Hey,Gary Grant,David Duke,Lew McCreary,Alan Kaplan,Brad Warnaar,George Bohanon,Rick Culver - horns
Gary Herbig,Dan Higgins - flutes
Jimmie Lee Sloas - bass samples
James Ingram,Chris Rodriguez,Cindy Mizelle,Audrey Wheeler,Alvin Chea - background vocal
James Ingram - keyboards programming
Оригинальный CD
 
ЕАС
EAC extraction logfile from 9. December 2009, 12:45 for CD
James Ingram / Always You
Used drive : LITE-ON CD-RW SOHR-5238S Adapter: 1 ID: 0
Read mode : Secure with NO C2, accurate stream, disable cache
Read offset correction : 6
Overread into Lead-In and Lead-Out : Yes
Used output format : C:\Program Files\MediaCoder\codecs\flac.exe (User Defined Encoder)
192 kBit/s
Additional command line options : ?8 ?V ?T "ARTIST=%a" ?T "TITLE=%t" ?T "ALBUM=%g" ?T "DATE=%y" ?T "TRACKNUMBER=%n" ?T "GENRE=%m" ?T "COMMENT=EAC FLAC ?8" %s
Other options :
Fill up missing offset samples with silence : Yes
Delete leading and trailing silent blocks : No
Installed external ASPI interface
Track 1
Filename F:\Torrents CD\James Ingram-Always You-1993[WB]\01 - Someone Like You .wav
Pre-gap length 0:00:02.42
Peak level 100.0 %
Track quality 100.0 %
Test CRC 78A02F3C
Copy CRC 78A02F3C
Copy OK
Track 2
Filename F:\Torrents CD\James Ingram-Always You-1993[WB]\02 - Let Me Love You This Way .wav
Pre-gap length 0:00:00.13
Peak level 97.2 %
Track quality 100.0 %
Test CRC BC5B9575
Copy CRC BC5B9575
Copy OK
Track 3
Filename F:\Torrents CD\James Ingram-Always You-1993[WB]\03 - Always You .wav
Pre-gap length 0:00:01.53
Peak level 92.7 %
Track quality 100.0 %
Test CRC 5CABF3E6
Copy CRC 5CABF3E6
Copy OK
Track 4
Filename F:\Torrents CD\James Ingram-Always You-1993[WB]\04 - Treat Her Right .wav
Pre-gap length 0:00:01.30
Peak level 96.5 %
Track quality 100.0 %
Test CRC C9262242
Copy CRC C9262242
Copy OK
Track 5
Filename F:\Torrents CD\James Ingram-Always You-1993[WB]\05 - A Baby Born .wav
Pre-gap length 0:00:00.06
Peak level 100.0 %
Track quality 100.0 %
Test CRC 924A7D3C
Copy CRC 924A7D3C
Copy OK
Track 6
Filename F:\Torrents CD\James Ingram-Always You-1993[WB]\06 - This Is The Night .wav
Peak level 100.0 %
Track quality 100.0 %
Test CRC 1964BCE7
Copy CRC 1964BCE7
Copy OK
Track 7
Filename F:\Torrents CD\James Ingram-Always You-1993[WB]\07 - You Never Know What You Got .wav
Peak level 100.0 %
Track quality 100.0 %
Test CRC 01534935
Copy CRC 01534935
Copy OK
Track 8
Filename F:\Torrents CD\James Ingram-Always You-1993[WB]\08 - Too Much For This Heart .wav
Peak level 98.4 %
Track quality 100.0 %
Test CRC 50DEC6C3
Copy CRC 50DEC6C3
Copy OK
Track 9
Filename F:\Torrents CD\James Ingram-Always You-1993[WB]\09 - Sing For The Children .wav
Pre-gap length 0:00:01.53
Peak level 100.0 %
Track quality 100.0 %
Test CRC 3842D490
Copy CRC 3842D490
Copy OK
Track 10
Filename F:\Torrents CD\James Ingram-Always You-1993[WB]\10 - Any Kind Of Love .wav
Peak level 100.0 %
Track quality 99.8 %
Test CRC 94B9E13F
Copy CRC 94B9E13F
Copy OK
No errors occured
End of status report
 
CUE
REM GENRE R&B
REM DATE 1993
REM DISCID 990C8D0A
REM COMMENT "ExactAudioCopy v0.95b3"
PERFORMER "James Ingram"
TITLE "Always You"
FILE "01 - Someone Like You .wav" WAVE
TRACK 01 AUDIO
TITLE "Someone Like You"
PERFORMER "James Ingram"
PREGAP 00:00:32
INDEX 01 00:00:00
TRACK 02 AUDIO
TITLE "Let Me Love You This Way"
PERFORMER "James Ingram"
INDEX 00 04:24:05
FILE "02 - Let Me Love You This Way .wav" WAVE
INDEX 01 00:00:00
TRACK 03 AUDIO
TITLE "Always You"
PERFORMER "James Ingram"
INDEX 00 04:12:53
FILE "03 - Always You .wav" WAVE
INDEX 01 00:00:00
TRACK 04 AUDIO
TITLE "Treat Her Right"
PERFORMER "James Ingram"
INDEX 00 04:36:52
FILE "04 - Treat Her Right .wav" WAVE
INDEX 01 00:00:00
TRACK 05 AUDIO
TITLE "A Baby Born"
PERFORMER "James Ingram"
INDEX 00 05:04:10
FILE "05 - A Baby Born .wav" WAVE
INDEX 01 00:00:00
FILE "06 - This Is The Night .wav" WAVE
TRACK 06 AUDIO
TITLE "This Is The Night"
PERFORMER "James Ingram"
INDEX 01 00:00:00
FILE "07 - You Never Know What You Got .wav" WAVE
TRACK 07 AUDIO
TITLE "You Never Know What You Got"
PERFORMER "James Ingram"
INDEX 01 00:00:00
FILE "08 - Too Much For This Heart .wav" WAVE
TRACK 08 AUDIO
TITLE "Too Much For This Heart"
PERFORMER "James Ingram"
INDEX 01 00:00:00
TRACK 09 AUDIO
TITLE "Sing For The Children"
PERFORMER "James Ingram"
INDEX 00 05:22:50
FILE "09 - Sing For The Children .wav" WAVE
INDEX 01 00:00:00
FILE "10 - Any Kind Of Love .wav" WAVE
TRACK 10 AUDIO
TITLE "Any Kind Of Love"
PERFORMER "James Ingram"
INDEX 01 00:00:00
Приватный:
Нет (DHT включён)
Размер:
386.32 Мб (405,084,378 байт) » файлов: 19
Участники:
0 раздают, 0 качают (0 участников всего)
Внешние участники:
2 раздают, 1 качают (3 участников всего) [ Обновить ]
02:40
40
Нет комментариев. Ваш будет первым!