Поиск

(Vocal Jazz, World Fusion, Nouveau Flamenco) [CD] Magos Herrera & Javier Limon - Dawn - 2014, FLAC (tracks+.cue), lossless

(Vocal Jazz, World Fusion, Nouveau Flamenco) [CD] Magos Herrera & Javier Limon - Dawn - 2014, FLAC (tracks+.cue), lossless
Треклист:
Magos & Limón
Dawn
Жанр: Vocal Jazz, World Fusion, Nouveau Flamenco
Страна-производитель диска (релиза): EU
Год издания: 2014
Издатель (лейбл): Casa Limón / OKeh Records
Страна исполнителя (группы): Mexico/Spain
Аудиокодек: FLAC (*.flac)
Тип рипа: tracks+.cue
Битрейт аудио: lossless
Продолжительность: 54:45
Источник (релизер): спасибо dtromp
Наличие сканов в содержимом раздачи: да
Треклист:
01. Afro Blue
02. Dawn
03. Skylark
04. La Martiniana
05. My Love For You
06. Wild Is The Wind
07. O Que Tinha De Ser
08. Tierra Movida
09. Oraçao Ao Tempo
10. La Llorona
11. Nature Boy
12. Blue In Green
 
Лог создания рипа
Exact Audio Copy V1.0 beta 3 from 29. August 2011
EAC extraction logfile from 14. December 2014, 13:08
Magos Herrera & Javier Limon / Dawn
Used drive : ATAPI iHBS112 2 Adapter: 2 ID: 0
Read mode : Secure
Utilize accurate stream : Yes
Defeat audio cache : Yes
Make use of C2 pointers : No
Read offset correction : 6
Overread into Lead-In and Lead-Out : No
Fill up missing offset samples with silence : Yes
Delete leading and trailing silent blocks : No
Null samples used in CRC calculations : Yes
Used interface : Native Win32 interface for Win NT & 2000
Gap handling : Appended to previous track
Used output format : User Defined Encoder
Selected bitrate : 1024 kBit/s
Quality : High
Add ID3 tag : No
Command line compressor : C:\Program Files\FLAC Frontend\tools\flac.exe
Additional command line options : -8 -V -T "ARTIST=%artist%" -T "TITLE=%title%" -T "ALBUM=%albumtitle%" -T "DATE=%year%" -T "TRACKNUMBER=%tracknr%" -T "TOTALTRACKS=%numtracks%" -T "GENRE=%genre%" -T "ALBUMARTIST=%albumartist%" -T "ALBUM ARTIST=%albumartist%" -T "COMPOSER=%composer%" -T "PERFORMER=%albuminterpret%" -T "DISCNUMBER=%cdnumber%" -T "TOTALDISCS=%totalcds%" -T "COMMENT=EAC Secure Mode, Test & Copy, AccurateRip, FLAC -8" %source%
TOC of the extracted CD
Track | Start | Length | Start sector | End sector
---------------------------------------------------------
1 | 0:00.00 | 4:44.44 | 0 | 21343
2 | 4:44.44 | 3:45.07 | 21344 | 38225
3 | 8:29.51 | 4:25.73 | 38226 | 58173
4 | 12:55.49 | 4:44.70 | 58174 | 79543
5 | 17:40.44 | 5:14.23 | 79544 | 103116
6 | 22:54.67 | 3:39.18 | 103117 | 119559
7 | 26:34.10 | 3:27.23 | 119560 | 135107
8 | 30:01.33 | 5:29.57 | 135108 | 159839
9 | 35:31.15 | 4:17.29 | 159840 | 179143
10 | 39:48.44 | 6:06.18 | 179144 | 206611
11 | 45:54.62 | 4:34.66 | 206612 | 227227
12 | 50:29.53 | 4:37.64 | 227228 | 248066
Track 1
Filename P:\DL\Magos Herrera & Javier Limon - Dawn (2014) [FLAC]\01 - Afro Blue.wav
Pre-gap length 0:00:02.00
Peak level 99.8 %
Extraction speed 5.2 X
Track quality 100.0 %
Test CRC 23E112DA
Copy CRC 23E112DA
Accurately ripped (confidence 6) [7A6FE16A] (AR v2)
Copy OK
Track 2
Filename P:\DL\Magos Herrera & Javier Limon - Dawn (2014) [FLAC]\02 - Dawn.wav
Pre-gap length 0:00:02.00
Peak level 98.0 %
Extraction speed 4.7 X
Track quality 99.9 %
Test CRC AD26E0B1
Copy CRC AD26E0B1
Accurately ripped (confidence 6) [D7843D40] (AR v2)
Copy OK
Track 3
Filename P:\DL\Magos Herrera & Javier Limon - Dawn (2014) [FLAC]\03 - Skylark.wav
Pre-gap length 0:00:02.00
Peak level 99.8 %
Extraction speed 6.2 X
Track quality 100.0 %
Test CRC 04163A05
Copy CRC 04163A05
Accurately ripped (confidence 6) [2C429E11] (AR v2)
Copy OK
Track 4
Filename P:\DL\Magos Herrera & Javier Limon - Dawn (2014) [FLAC]\04 - La Martiniana.wav
Pre-gap length 0:00:02.00
Peak level 99.8 %
Extraction speed 6.8 X
Track quality 100.0 %
Test CRC 76318DCE
Copy CRC 76318DCE
Accurately ripped (confidence 6) [A32B7336] (AR v2)
Copy OK
Track 5
Filename P:\DL\Magos Herrera & Javier Limon - Dawn (2014) [FLAC]\05 - My Love For You.wav
Pre-gap length 0:00:02.00
Peak level 97.8 %
Extraction speed 7.4 X
Track quality 100.0 %
Test CRC 80B5B663
Copy CRC 80B5B663
Accurately ripped (confidence 6) [8C462C12] (AR v2)
Copy OK
Track 6
Filename P:\DL\Magos Herrera & Javier Limon - Dawn (2014) [FLAC]\06 - Wild Is The Wind.wav
Pre-gap length 0:00:02.00
Peak level 99.8 %
Extraction speed 7.5 X
Track quality 100.0 %
Test CRC F6B17C3A
Copy CRC F6B17C3A
Accurately ripped (confidence 6) [9B4EF1D8] (AR v2)
Copy OK
Track 7
Filename P:\DL\Magos Herrera & Javier Limon - Dawn (2014) [FLAC]\07 - O Que Tinha De Ser.wav
Pre-gap length 0:00:01.98
Peak level 99.8 %
Extraction speed 7.6 X
Track quality 100.0 %
Test CRC 19A5D8E8
Copy CRC 19A5D8E8
Accurately ripped (confidence 6) [A5B6BCA7] (AR v2)
Copy OK
Track 8
Filename P:\DL\Magos Herrera & Javier Limon - Dawn (2014) [FLAC]\08 - Tierra Movida.wav
Pre-gap length 0:00:01.98
Peak level 99.8 %
Extraction speed 8.5 X
Track quality 100.0 %
Test CRC 4C53F0FC
Copy CRC 4C53F0FC
Accurately ripped (confidence 6) [D5F89A1D] (AR v2)
Copy OK
Track 9
Filename P:\DL\Magos Herrera & Javier Limon - Dawn (2014) [FLAC]\09 - Oracao Ao Tempo.wav
Pre-gap length 0:00:01.98
Peak level 99.8 %
Extraction speed 8.6 X
Track quality 100.0 %
Test CRC 9F93F04B
Copy CRC 9F93F04B
Accurately ripped (confidence 6) [2B7162B3] (AR v2)
Copy OK
Track 10
Filename P:\DL\Magos Herrera & Javier Limon - Dawn (2014) [FLAC]\10 - La Llorona.wav
Pre-gap length 0:00:01.98
Peak level 99.8 %
Extraction speed 9.4 X
Track quality 100.0 %
Test CRC 64493877
Copy CRC 64493877
Accurately ripped (confidence 6) [4A55B463] (AR v2)
Copy OK
Track 11
Filename P:\DL\Magos Herrera & Javier Limon - Dawn (2014) [FLAC]\11 - Nature Boy.wav
Pre-gap length 0:00:02.00
Peak level 99.8 %
Extraction speed 8.0 X
Track quality 99.9 %
Test CRC FC468FA5
Copy CRC FC468FA5
Accurately ripped (confidence 6) [341B21FD] (AR v2)
Copy OK
Track 12
Filename P:\DL\Magos Herrera & Javier Limon - Dawn (2014) [FLAC]\12 - Blue In Green.wav
Pre-gap length 0:00:02.00
Peak level 99.8 %
Extraction speed 9.7 X
Track quality 100.0 %
Test CRC 308688FB
Copy CRC 308688FB
Accurately ripped (confidence 6) [A56800F5] (AR v2)
Copy OK
All tracks accurately ripped
No errors occurred
End of status report
---- CUETools DB Plugin V2.1.3
[CTDB TOCID: S7WAas4SNYqh16vgNtjo01m7ea8-] disk not present in database, Submit result: S7WAas4SNYqh16vgNtjo01m7ea8- has been uploaded
==== Log checksum 9CADACB1E18512B776E22CA7F53611B31A04554010A72B635E5BA5E6E5D74E3D ====
 
Содержание индексной карты (.CUE)
REM GENRE Jazz
REM DATE 2014
REM DISCID 9B0CEB0C
REM COMMENT "ExactAudioCopy v1.0b3"
PERFORMER "Magos Herrera & Javier Limon"
TITLE "Dawn"
FILE "01 - Afro Blue.wav" WAVE
TRACK 01 AUDIO
TITLE "Afro Blue"
PERFORMER "Magos Herrera & Javier Limon"
INDEX 01 00:00:00
TRACK 02 AUDIO
TITLE "Dawn"
PERFORMER "Magos Herrera & Javier Limon"
INDEX 00 04:42:44
FILE "02 - Dawn.wav" WAVE
INDEX 01 00:00:00
TRACK 03 AUDIO
TITLE "Skylark"
PERFORMER "Magos Herrera & Javier Limon"
INDEX 00 03:43:07
FILE "03 - Skylark.wav" WAVE
INDEX 01 00:00:00
TRACK 04 AUDIO
TITLE "La Martiniana"
PERFORMER "Magos Herrera & Javier Limon"
INDEX 00 04:23:73
FILE "04 - La Martiniana.wav" WAVE
INDEX 01 00:00:00
TRACK 05 AUDIO
TITLE "My Love For You"
PERFORMER "Magos Herrera & Javier Limon"
INDEX 00 04:42:70
FILE "05 - My Love For You.wav" WAVE
INDEX 01 00:00:00
TRACK 06 AUDIO
TITLE "Wild Is The Wind"
PERFORMER "Magos Herrera & Javier Limon"
INDEX 00 05:12:23
FILE "06 - Wild Is The Wind.wav" WAVE
INDEX 01 00:00:00
TRACK 07 AUDIO
TITLE "O Que Tinha De Ser"
PERFORMER "Magos Herrera & Javier Limon"
INDEX 00 03:37:19
FILE "07 - O Que Tinha De Ser.wav" WAVE
INDEX 01 00:00:00
TRACK 08 AUDIO
TITLE "Tierra Movida"
PERFORMER "Magos Herrera & Javier Limon"
INDEX 00 03:25:24
FILE "08 - Tierra Movida.wav" WAVE
INDEX 01 00:00:00
TRACK 09 AUDIO
TITLE "Oracao Ao Tempo"
PERFORMER "Magos Herrera & Javier Limon"
INDEX 00 05:27:58
FILE "09 - Oracao Ao Tempo.wav" WAVE
INDEX 01 00:00:00
TRACK 10 AUDIO
TITLE "La Llorona"
PERFORMER "Magos Herrera & Javier Limon"
INDEX 00 04:15:30
FILE "10 - La Llorona.wav" WAVE
INDEX 01 00:00:00
TRACK 11 AUDIO
TITLE "Nature Boy"
PERFORMER "Magos Herrera & Javier Limon"
INDEX 00 06:04:18
FILE "11 - Nature Boy.wav" WAVE
INDEX 01 00:00:00
TRACK 12 AUDIO
TITLE "Blue In Green"
PERFORMER "Magos Herrera & Javier Limon"
INDEX 00 04:32:66
FILE "12 - Blue In Green.wav" WAVE
INDEX 01 00:00:00
 
Об альбоме
What would a celebrated Mexican-born vocal stylist and a world-famous Spanish Flamenco guitarist sound like in a duet?
Like Magos Herrera and Javier Limón in their first album together, Dawn. Splendid. Breathy. Voraciously spacious. Yup. All first impressions of this upcoming, June 3rd release on OKeh Records.
Coming together to do this album was a no-brainer for the two consummate professionals. They each admired the immense work of the other. “Something that we share is that we do believe that music can be inclusive,” Herrera said. “So this means that you can have a Latin jazz singer singing with a Flamenco guitar player…. It’s been an incredible learning experience to see how he works as a producer, and for me to share and be able to create new music together.”
Limón has worked with a plethora of international artists and created a solid foundation of culturally inclusive fusion music on his own record label, Casa Limón. Working with Herrera came naturally. “I really appreciate a singer like Magos that has a great voice, great rhythm, and a great sense of musicality. She has a big heart with a lot of knowledge. The album, if we have to choose just a few words, is about sound, about rhythm, about loneliness, about emptiness, about voice, heart, guitar, and silence.”
Herrera’s international success — she’s a household name in her native Mexico City, and fast becoming one in her adopted New York City — plays heavily in the cross-cultural fusions required of a mixed-instrumental, Latin-jazz project such as this. Her adaptability in the vast realm of modern-jazz plays well in the collaborative process with Limón, a giant in his industry, and quick-silver in his adjunctive performances.
Theirs is a Dawn worth getting up for. Her throaty balladeer with his syncopated Flamenco beats and claps, and that romantic string-caress set such a sumptuous, carnal, driftwood mood. They cover Miles Davis’ “Blue In Green,” Johnny Mercer/Hoagy Carmichael’s “Skylark,” Mongo Santamaria’s “Afro Blue,” Antonio Carlos Jobim’s “O que tinha de ser (What Has To Be),” and Nat King Cole’s hit song, “Nature Boy,” as gustily as their own luxurious compositions. The full effect is that of setting sail to far-off, exotic locales, leaving cares and worries behind.
Herrera’s own natural, intuitively inclined pursuit of things of the heart leads the thematic discussion of this album. As big as she is in Mexico City, with her own TV show there, and her own radio show, La Vuelta a La Manzana, here, Herrera doesn’t act like a big deal. She’s completely accessible to fans on- and offline, drawn by the emotional connections, and the belief that people are of one heart, not separate entities.
That belief seeps into the tone and feel of Herrera’s warm, enfolding, breathy caress with each savored note. “What drives me as an artist is life itself of course and the way I need to express my perception of it,” Herrera said. “In a more practical level, living in New York is so inspiring, you get to know so many amazing artists sharing their visions with so much passion and [surrendering to] that makes this path a wonderful experience.”
Herrera simply redresses tired jazz covers with that velvet and diamond voice, as Limón quietly moves her building urgency along with every stroke, squeal, and those truncated, placating beats that take the listener somewhere else.
Many have covered “Nature Boy” with Latin beats in mind. But none perhaps more eloquently and authentically than Limón’s fine-fingered-flickers and unison claps amidst Herrera’s phrasing overhaul, redirecting certain familiar lyrics to suit her own non-traditional, non-American interpretation, always in a downward, harmonically-sympathetic slant.
“Skylark” is a completely different song altogether when Herrera sings it, bordering that deeper, harmonic register, daring the melody to follow suit. She changes the sweetness and light of this standard into a sexual invitation, full of dark, but true possibilities.
The opening number, “Afro Blue,” assures the listener this isn’t the typical path through American and Latin jazz composition by any means. As soon as those claps beat out a synco-funk introduction, Herrera and Limón are in their own element of suave and sophisticated, heat and seduction. They’re so good at wrapping vocals around Flamenco, without displacing the odd, rhythmic, very Latin clap-beats, it’s mind-boggling, and fantastically misleading.
Herrera and Limón’s covers are a cut above. But their original compositions? Forget it.
“My Love For You” by Herrera and Limón is such a perfect rendition of what these two artists can do together. The arch of a bow and arrow plaintively wailing in the night, Limón’s hesitant but note-abiding tracking, and Herrera’s explicit vocals barely clutching remnants of demure camouflage… all converge to hit the fevered climax of “Take me.” That breathy lick and smoke finale is perhaps the most seductive climax to any slow-burning instrumental.
“Dawn” starts off simply, Limón fixating on a handful of notes over and over, as Herrera finds her course, filling the voice and solitude in her own furtive and lapsed cadence that’s quite charming and exotic. Then, Limón punctuates each lyrical run by Herrera with his guitar string squeal in a way that’s disconcertingly, profoundly orchestral-original. All their songs are hard to resist. But this one kept coming back, the spare music and lyrics spinning in a kind of subconscious mantra for the soul, especially in the mysteriously fulfilling refrain at the end, “No one but you, no one but you… knows about me.”
When asked, Herrera pointed to the sea as her point of inspiration. “I wrote some verses over this bass line on the plane going to Madrid to record the album, wondering [about] the virtue of letting go as an act of love, detachment, acceptance, but still deeply committed to the other’s destiny. Once I was at the studio, I played it to Javier, who came up with the B part. Sounded beautiful and we recorded it right away and [it] became the single.”
As a musician first, Limón hears the juice of the notes differently from an average listener and most vocalists. For him, the contemplative, gentle tide of “La Llorona” felt unreal to play in the studio. He recorded it in the first take, maintaining both the quality and the emotion of the piece. “The recording is a real first take. I mean that, not only was [it] the first time that we recorded that song, it was the first time that we played it together. A masterpiece of emotion.”
Of course.
(Carol Banks Weber)
Magos Herrera – vocals
Javier Limón – flamenco guitar
+
Juan Vargas - percussion
Layth Sidiq - violin
17:22
310
Нет комментариев. Ваш будет первым!