Поиск

(Vocal Jazz, World Fusion, Jazz) [CD] Maria João e Mário Laginha/Maria Joao & Mario Laginha - A Arte e a Música - 2004, FLAC (tracks), lossless

(Vocal Jazz, World Fusion, Jazz) [CD] Maria João e Mário Laginha/Maria Joao & Mario Laginha - A Arte e a Música - 2004, FLAC (tracks), lossless
Треклист:
Maria João e Mário Laginha / A Arte e a Música
Жанр: Vocal Jazz, World Fusion, Jazz
Носитель: CD
Страна-производитель диска (релиза): Portugal
Год издания: 2004
Издатель (лейбл): Universal Music Portugal
Номер по каталогу: 986685-3
Страна исполнителя (группы): Portugal
Аудиокодек: FLAC (*.flac)
Тип рипа: tracks
Битрейт аудио: lossless
Продолжительность: 0:41:03
Источник (релизер): релизер
Наличие сканов в содержимом раздачи: нет
Треклист:
01 - Beatriz 07:04
02 - Wake Up Dead Man 03:46
03 - Nhlonge Yamina 02:55
04 - Flor 05:03
05 - Love Is The Seventh Wave 04:05
06 - Este Seu Olhar 02:25
07 - Água Cinzenta 02:55
08 - Nazuk 04:46
09 - A Lua Partida Ao Meio 03:02
10 - Rafael Ou A Cor De Moçambique 04:58
 
Лог создания рипа
Exact Audio Copy V1.3 from 2. September 2016
EAC extraction logfile from 28. July 2018, 12:51
Maria João e Mário Laginha / A arte e a música
Used drive : HL-DT-STDVDRAM GH24NS70 Adapter: 1 ID: 0
Read mode : Secure
Utilize accurate stream : Yes
Defeat audio cache : No
Make use of C2 pointers : No
Combined read/write offset correction : 0
Overread into Lead-In and Lead-Out : No
Fill up missing offset samples with silence : Yes
Delete leading and trailing silent blocks : No
Null samples used in CRC calculations : Yes
Used interface : Native Win32 interface for Win NT & 2000
Gap handling : Not detected, thus appended to previous track
Used output format : User Defined Encoder
Selected bitrate : 768 kBit/s
Quality : High
Add ID3 tag : Yes
Command line compressor : C:\Program Files (x86)\Exact Audio Copy\FLAC\FLAC.EXE
Additional command line options : -8 -V -T "ARTIST=%artist%" -T "TITLE=%title%" -T "ALBUM=%albumtitle%" -T "DATE=%year%" -T "TRACKNUMBER=%tracknr%" -T "GENRE=%genre%" -T "COMMENT=%comment%" -T "BAND=%albuminterpret%" -T "ALBUMARTIST=%albuminterpret%" -T "COMPOSER=%composer%" %haslyrics%--tag-from-file=LYRICS="%lyricsfile%"%haslyrics% -T "DISCNUMBER=%cdnumber%" -T "TOTALDISCS=%totalcds%" -T "TOTALTRACKS=%numtracks%" %hascover%--picture="%coverfile%"%hascover% %source% -o %dest%
TOC of the extracted CD
Track | Start | Length | Start sector | End sector
---------------------------------------------------------
1 | 0:00.65 | 7:04.63 | 65 | 31927
2 | 7:05.53 | 3:46.22 | 31928 | 48899
3 | 10:52.00 | 2:55.04 | 48900 | 62028
4 | 13:47.04 | 5:03.69 | 62029 | 84822
5 | 18:50.73 | 4:05.51 | 84823 | 103248
6 | 22:56.49 | 2:25.50 | 103249 | 114173
7 | 25:22.24 | 2:55.55 | 114174 | 127353
8 | 28:18.04 | 4:46.11 | 127354 | 148814
9 | 33:04.15 | 3:02.23 | 148815 | 162487
10 | 36:06.38 | 4:58.09 | 162488 | 184846
Track 1
Filename R:\EAC\01 Beatriz.wav
Peak level 98.8 %
Extraction speed 2.1 X
Track quality 100.0 %
Test CRC 0BA6AE41
Copy CRC 0BA6AE41
Copy OK
Track 2
Filename R:\EAC\02 Wake Up Dead Man.wav
Peak level 98.8 %
Extraction speed 2.4 X
Track quality 100.0 %
Test CRC A9D77FDB
Copy CRC A9D77FDB
Copy OK
Track 3
Filename R:\EAC\03 Nhlonge Yamina.wav
Peak level 98.8 %
Extraction speed 2.7 X
Track quality 100.0 %
Test CRC 116D7159
Copy CRC 116D7159
Copy OK
Track 4
Filename R:\EAC\04 Flor.wav
Peak level 98.8 %
Extraction speed 2.8 X
Track quality 100.0 %
Test CRC 7608285C
Copy CRC 7608285C
Copy OK
Track 5
Filename R:\EAC\05 Love Is The Seventh Wave.wav
Peak level 98.8 %
Extraction speed 2.9 X
Track quality 99.9 %
Test CRC 3BF6B2E0
Copy CRC 3BF6B2E0
Copy OK
Track 6
Filename R:\EAC\06 Este Seu Olhar.wav
Peak level 98.8 %
Extraction speed 3.0 X
Track quality 100.0 %
Test CRC 3A83AD3D
Copy CRC 3A83AD3D
Copy OK
Track 7
Filename R:\EAC\07 Água Cinzenta.wav
Peak level 98.8 %
Extraction speed 3.3 X
Track quality 100.0 %
Test CRC BC9E9ADB
Copy CRC BC9E9ADB
Copy OK
Track 8
Filename R:\EAC\08 Nazuk.wav
Peak level 98.8 %
Extraction speed 3.3 X
Track quality 99.9 %
Test CRC 6FA3EE6F
Copy CRC 6FA3EE6F
Copy OK
Track 9
Filename R:\EAC\09 A Lua Partida Ao Meio.wav
Peak level 98.8 %
Extraction speed 3.6 X
Track quality 100.0 %
Test CRC 3E4CDA1B
Copy CRC 3E4CDA1B
Copy OK
Track 10
Filename R:\EAC\10 Rafael Ou A Cor De Moçambique.wav
Peak level 97.0 %
Extraction speed 3.7 X
Track quality 99.9 %
Test CRC EFE2835F
Copy CRC EFE2835F
Copy OK
No errors occurred
End of status report
---- CUETools DB Plugin V2.1.6
[CTDB TOCID: ND8UG0hrSC2SSU1HfrNMIQE99wI-] found
Submit result: already submitted
Track | CTDB Status
1 | (1/1) Accurately ripped
2 | (1/1) Accurately ripped
3 | (1/1) Accurately ripped
4 | (1/1) Accurately ripped
5 | (1/1) Accurately ripped
6 | (1/1) Accurately ripped
7 | (1/1) Accurately ripped
8 | (1/1) Accurately ripped
9 | (1/1) Accurately ripped
10 | (1/1) Accurately ripped
Скачивание доступно после регистрации!!
Приватный:
Нет (DHT включён)
Размер:
243.18 Мб (254,988,973 байт) » файлов: 12
Участники:
0 раздают, 0 качают (0 участников всего)
Внешние участники:
2 раздают, 1 качают (3 участников всего) [ Обновить ]
07:46
13
Нет комментариев. Ваш будет первым!