Поиск

(Vocal Jazz, World Fusion, Brazilian Jazz) Astrud Gilberto - Astrud Gilberto's Finest Hour - 2001, FLAC (image+.cue), lossless

(Vocal Jazz, World Fusion, Brazilian Jazz) Astrud Gilberto - Astrud Gilberto's Finest Hour - 2001, FLAC (image+.cue), lossless
Треклист:
Astrud Gilberto - Astrud Gilberto's Finest Hour
Жанр: Vocal Jazz, World Fusion, Brazilian Jazz
Страна-производитель диска: Германия
Год издания диска: 2001
Издатель (лейбл): Verve
Номер по каталогу: 520 790-2
Страна: Бразилия
Аудиокодек: FLAC (*.flac)
Тип рипа: image+.cue
Битрейт аудио: lossless
Продолжительность: 60:44
Источник (релизер): диск из моей коллекции
Наличие сканов в содержимом раздачи: да
Треклист:
01. Goodbye Sadness (Tristeza)
02. The Girl from Ipanema
03. Meditation
04. The Face I Love
05. Corcovado (Quiet Nights of Quiet Stars)
06. So Nice (Samba de Verao)
07. A Felicidade
08. Photograph
09. It Might as Well Be Spring
10. Wish Me a Rainbow
11. Fly Me to the Moon
12. Crickets Sing for Anamaria
13. Who Needs Forever?
14. Insensatez
15. Berimbau
16. Come Softly to Me/Hushabye
17. Trains and Boats and Planes
18. Canto de Ossanha (Let Go)
19. I'm Nothin' Without You
20. In the Wee Small Hours
Записи 1963-1986 гг.
 
Лог создания рипа
Exact Audio Copy V1.0 beta 1 from 15. November 2010
EAC extraction logfile from 21. January 2012, 16:51
Astrud Gilberto / Astrud Gilberto's Finest Hour
Used drive : ASUS DRW-24B1LT Adapter: 5 ID: 0
Read mode : Secure
Utilize accurate stream : Yes
Defeat audio cache : Yes
Make use of C2 pointers : No
Read offset correction : 6
Overread into Lead-In and Lead-Out : No
Fill up missing offset samples with silence : Yes
Delete leading and trailing silent blocks : No
Null samples used in CRC calculations : Yes
Used interface : Native Win32 interface for Win NT & 2000
Used output format : User Defined Encoder
Selected bitrate : 768 kBit/s
Quality : High
Add ID3 tag : No
Command line compressor : C:\Program Files\Exact Audio Copy\Flac\flac.exe
Additional command line options : -8 -V -T "ARTIST=%a" -T "TITLE=%t" -T "ALBUM=%g" -T "DATE=%y" -T "TRACKNUMBER=%n" -T "TOTALTRACKS=%x" -T "GENRE=%m" -T "ALBUMARTIST=%v" -T "ALBUM ARTIST=%v" -T "COMMENT=EAC Secure Mode, Test & Copy, AccurateRip, FLAC -8" %s
TOC of the extracted CD
Track | Start | Length | Start sector | End sector
---------------------------------------------------------
1 | 0:00.00 | 3:35.15 | 0 | 16139
2 | 3:35.15 | 5:25.28 | 16140 | 40542
3 | 9:00.43 | 2:43.17 | 40543 | 52784
4 | 11:43.60 | 2:09.55 | 52785 | 62514
5 | 13:53.40 | 4:15.38 | 62515 | 81677
6 | 18:09.03 | 2:41.20 | 81678 | 93772
7 | 20:50.23 | 2:49.10 | 93773 | 106457
8 | 23:39.33 | 2:15.12 | 106458 | 116594
9 | 25:54.45 | 4:24.53 | 116595 | 136447
10 | 30:19.23 | 2:27.42 | 136448 | 147514
11 | 32:46.65 | 2:22.00 | 147515 | 158164
12 | 35:08.65 | 1:35.65 | 158165 | 165354
13 | 36:44.55 | 3:10.65 | 165355 | 179669
14 | 39:55.45 | 2:48.53 | 179670 | 192322
15 | 42:44.23 | 2:28.70 | 192323 | 203492
16 | 45:13.18 | 2:53.02 | 203493 | 216469
17 | 48:06.20 | 2:50.65 | 216470 | 229284
18 | 50:57.10 | 3:07.28 | 229285 | 243337
19 | 54:04.38 | 4:25.27 | 243338 | 263239
20 | 58:29.65 | 2:14.70 | 263240 | 273359
Range status and errors
Selected range
Filename F:\audio\Astrud Gilberto - Astrud Gilberto's Finest Hour.wav
Peak level 100.0 %
Extraction speed 0.2 X
Range quality 100.0 %
Test CRC 330853DB
Copy CRC 330853DB
Copy OK
No errors occurred
AccurateRip summary
Track 1 accurately ripped (confidence 2) [16E1510B]
Track 2 accurately ripped (confidence 2) [A83A2C7D]
Track 3 accurately ripped (confidence 2) [05089D1B]
Track 4 accurately ripped (confidence 2) [4FE2A99A]
Track 5 accurately ripped (confidence 2) [D467E671]
Track 6 accurately ripped (confidence 2) [468912DD]
Track 7 accurately ripped (confidence 2) [2A9D184B]
Track 8 accurately ripped (confidence 2) [90860F84]
Track 9 accurately ripped (confidence 2) [34E97FC2]
Track 10 accurately ripped (confidence 2) [91688D93]
Track 11 accurately ripped (confidence 2) [B003554A]
Track 12 accurately ripped (confidence 2) [8E58813F]
Track 13 accurately ripped (confidence 2) [E6DC5683]
Track 14 accurately ripped (confidence 2) [677F4E0C]
Track 15 accurately ripped (confidence 2) [5C5E34D5]
Track 16 accurately ripped (confidence 2) [267750C1]
Track 17 accurately ripped (confidence 2) [F7012144]
Track 18 accurately ripped (confidence 2) [53A3A16E]
Track 19 accurately ripped (confidence 2) [488911E6]
Track 20 accurately ripped (confidence 2) [77FB56BB]
All tracks accurately ripped
End of status report
==== Log checksum 433F8AD0550DBB1C0A4985B38D685D901E16DD34F4F5E51DAE2FD18FA47B1F6C ====
 
Содержание индексной карты (.CUE)
REM GENRE Jazz
REM DATE 2001
REM DISCID 0F0E3C14
REM COMMENT "ExactAudioCopy v1.0b1"
PERFORMER "Astrud Gilberto"
TITLE "Astrud Gilberto's Finest Hour"
FILE "Astrud Gilberto - Astrud Gilberto's Finest Hour.wav" WAVE
TRACK 01 AUDIO
TITLE "Goodbye Sadness (Tristeza)"
PERFORMER "Astrud Gilberto"
INDEX 01 00:00:00
TRACK 02 AUDIO
TITLE "The Girl from Ipanema"
PERFORMER "Astrud Gilberto"
INDEX 00 03:32:32
INDEX 01 03:35:15
TRACK 03 AUDIO
TITLE "Meditation"
PERFORMER "Astrud Gilberto"
INDEX 00 08:57:45
INDEX 01 09:00:43
TRACK 04 AUDIO
TITLE "The Face I Love"
PERFORMER "Astrud Gilberto"
INDEX 00 11:40:65
INDEX 01 11:43:60
TRACK 05 AUDIO
TITLE "Corcovado (Quiet Nights of Quiet Stars)"
PERFORMER "Astrud Gilberto"
INDEX 00 13:50:52
INDEX 01 13:53:40
TRACK 06 AUDIO
TITLE "So Nice (Samba de Verao)"
PERFORMER "Astrud Gilberto"
INDEX 00 18:07:18
INDEX 01 18:09:03
TRACK 07 AUDIO
TITLE "A Felicidade"
PERFORMER "Astrud Gilberto"
INDEX 00 20:48:35
INDEX 01 20:50:23
TRACK 08 AUDIO
TITLE "Photograph"
PERFORMER "Astrud Gilberto"
INDEX 00 23:36:38
INDEX 01 23:39:33
TRACK 09 AUDIO
TITLE "It Might as Well Be Spring"
PERFORMER "Astrud Gilberto"
INDEX 00 25:51:72
INDEX 01 25:54:45
TRACK 10 AUDIO
TITLE "Wish Me a Rainbow"
PERFORMER "Astrud Gilberto"
INDEX 01 30:19:23
TRACK 11 AUDIO
TITLE "Fly Me to the Moon"
PERFORMER "Astrud Gilberto"
INDEX 00 32:44:02
INDEX 01 32:46:65
TRACK 12 AUDIO
TITLE "Crickets Sing for Anamaria"
PERFORMER "Astrud Gilberto"
INDEX 00 35:05:15
INDEX 01 35:08:65
TRACK 13 AUDIO
TITLE "Who Needs Forever?"
PERFORMER "Astrud Gilberto"
INDEX 00 36:41:67
INDEX 01 36:44:55
TRACK 14 AUDIO
TITLE "Insensatez"
PERFORMER "Astrud Gilberto"
INDEX 00 39:52:60
INDEX 01 39:55:45
TRACK 15 AUDIO
TITLE "Berimbau"
PERFORMER "Astrud Gilberto"
INDEX 00 42:42:03
INDEX 01 42:44:23
TRACK 16 AUDIO
TITLE "Come Softly to Me/Hushabye"
PERFORMER "Astrud Gilberto"
INDEX 00 45:10:55
INDEX 01 45:13:18
TRACK 17 AUDIO
TITLE "Trains and Boats and Planes"
PERFORMER "Astrud Gilberto"
INDEX 00 48:03:55
INDEX 01 48:06:20
TRACK 18 AUDIO
TITLE "Canto de Ossanha (Let Go)"
PERFORMER "Astrud Gilberto"
INDEX 00 50:53:22
INDEX 01 50:57:10
TRACK 19 AUDIO
TITLE "I'm Nothing Without You"
PERFORMER "Astrud Gilberto"
INDEX 00 54:02:10
INDEX 01 54:04:38
TRACK 20 AUDIO
TITLE "In the Wee Small Hours"
PERFORMER "Astrud Gilberto"
INDEX 00 58:27:17
INDEX 01 58:29:65
 
Review by James Christopher Monger
Like Nico, Astrud Gilberto's everywoman voiced has always had a polarizing effect on critics and fans alike. While her take on bossa nova is less than reverent and decidedly lightweight, the warmth and approachability she brings to each performance is stunning. Verve's lovingly compiled -- and blissfully affordable -- Astrud Gilberto's Finest Hour is as solid a collection of her heady mixture of samba, jazz and pop as you're likely to find. Twenty songs, including the classic "Girl From Ipanema," wash in like waves from the warmest of oceans, carrying with them the soft, reverb-drenched soundtrack to summer. If the tropical heat of "Berimbau," the lazy and lonely pulse of Burt Bacharach's "Trains and Boats and Planes" and the upbeat swing of "Wish Me a Rainbow" don't instantly take the drudgery of your day away, then consider yourself hopelessly bitter. Highly recommended.
 
Состав
Astrud Gilberto - vocals
Marty Paich - arranger, conductor
Gil Evans - arranger, piano
Eumir Deodato - arranger
Joao Gilberto - guitar, background vocals
Toots Thielemans - guitar
Bud Shank - flute
Phil Bodner, Bill Hammond, Hubert Laws, Seldon Powell, Stan Webb - woodwinds
Stan Getz - tenor saxophone
Bernie Glow, Jimmy Nottingham, Ernie Royal, Marvin Stamm - trumpet
Ray Alonge, Earl Chapin, Tony Miranda - French horn
Wayne Andre, Warren Covington, Urbie Green, Tony Studd - trombone
John Horn - tuba
Walter Wanderley - piano, organ
Antonio Carlos Jobim, Joao Donato - piano
Ron Carter, Tommy Williams, Joe Mondragon - bass
Claudio Sion, Grady Tate - drums
Alan Douglas, Bobby Rosengarden - percussion
02:09
312
Нет комментариев. Ваш будет первым!