Поиск

(Vocal Jazz, Vintage Pop) [CD] Kat Edmonson - The Big Picture - 2014, FLAC (tracks+.cue), lossless

(Vocal Jazz, Vintage Pop) [CD] Kat Edmonson - The Big Picture - 2014, FLAC (tracks+.cue), lossless
Треклист:
KAT
EDMONSON
THE
BIG
PICTURE
Жанр: Vocal Jazz, Vintage Pop
Страна-производитель диска: USA
Год издания: 2014
Издатель (лейбл): Sony Masterworks
Аудиокодек: FLAC (*.flac)
Тип рипа: tracks+.cue
Битрейт аудио: lossless
Продолжительность: 40:48
Источник (релизер): спасибо securitea
Наличие сканов в содержимом раздачи: нет
Треклист:
01. Rainy Day Woman
02. You Said Enough
03. Oh My Love
04. Avion
05. Crying
06. All the Way
07. You Can't Break My Heart
08. Till We Start To Kiss
09. The Best
10. Dark Cloud
11. For Two
12. Who's Counting
 
Лог создания рипа
Exact Audio Copy V1.0 beta 3 from 29. August 2011
EAC extraction logfile from 15. November 2014, 2:11
Kat Edmonson / The Big Picture
Used drive : TSSTcorpCDDVDW SH-S223L Adapter: 5 ID: 0
Read mode : Secure
Utilize accurate stream : Yes
Defeat audio cache : Yes
Make use of C2 pointers : No
Read offset correction : 6
Overread into Lead-In and Lead-Out : No
Fill up missing offset samples with silence : Yes
Delete leading and trailing silent blocks : No
Null samples used in CRC calculations : Yes
Used interface : Native Win32 interface for Win NT & 2000
Gap handling : Appended to previous track
Used output format : User Defined Encoder
Selected bitrate : 128 kBit/s
Quality : High
Add ID3 tag : No
Command line compressor : C:\Program Files (x86)\Exact Audio Copy\Flac\flac.exe
Additional command line options : -8 -V -T "ARTIST=%artist%" -T "TITLE=%title%" -T "ALBUM=%albumtitle%" -T "DATE=%year%" -T "TRACKNUMBER=%tracknr%" -T "GENRE=%genre%" -T "PERFORMER=%albuminterpret%" -T "COMPOSER=%composer%" %haslyrics%--tag-from-file=LYRICS="%lyricsfile%"%haslyrics% -T "ALBUMARTIST=%albumartist%" -T "ALBUM ARTIST=%albumartist%" -T "DISCNUMBER=%cdnumber%" -T "TOTALDISCS=%totalcds%" -T "TOTALTRACKS=%numtracks%" -T "COMMENT=%comment%" %source% -o %dest%
TOC of the extracted CD
Track | Start | Length | Start sector | End sector
---------------------------------------------------------
1 | 0:00.00 | 3:26.55 | 0 | 15504
2 | 3:26.55 | 2:54.40 | 15505 | 28594
3 | 6:21.20 | 2:48.56 | 28595 | 41250
4 | 9:10.01 | 2:48.35 | 41251 | 53885
5 | 11:58.36 | 3:24.68 | 53886 | 69253
6 | 15:23.29 | 2:50.30 | 69254 | 82033
7 | 18:13.59 | 3:49.67 | 82034 | 99275
8 | 22:03.51 | 3:43.16 | 99276 | 116016
9 | 25:46.67 | 3:27.20 | 116017 | 131561
10 | 29:14.12 | 3:26.13 | 131562 | 147024
11 | 32:40.25 | 4:25.42 | 147025 | 166941
12 | 37:05.67 | 4:01.50 | 166942 | 185066
Track 1
Filename E:\Rips\Kat Edmonson - 2014 - The Big Picture [FLAC]\01 - Rainy Day Woman.wav
Pre-gap length 0:00:02.00
Peak level 99.6 %
Extraction speed 4.8 X
Track quality 100.0 %
Test CRC 0973FD5C
Copy CRC 0973FD5C
Accurately ripped (confidence 1) [129B21FC] (AR v2)
Copy OK
Track 2
Filename E:\Rips\Kat Edmonson - 2014 - The Big Picture [FLAC]\02 - You Said Enough.wav
Pre-gap length 0:00:01.33
Peak level 98.9 %
Extraction speed 5.0 X
Track quality 100.0 %
Test CRC 48769B4E
Copy CRC 48769B4E
Accurately ripped (confidence 1) [BEF57B5E] (AR v2)
Copy OK
Track 3
Filename E:\Rips\Kat Edmonson - 2014 - The Big Picture [FLAC]\03 - Oh My Love.wav
Pre-gap length 0:00:03.36
Peak level 98.8 %
Extraction speed 5.3 X
Track quality 100.0 %
Test CRC 5E6DAA21
Copy CRC 5E6DAA21
Accurately ripped (confidence 1) [BF14F5C2] (AR v2)
Copy OK
Track 4
Filename E:\Rips\Kat Edmonson - 2014 - The Big Picture [FLAC]\04 - Avion.wav
Pre-gap length 0:00:01.92
Peak level 98.9 %
Extraction speed 5.5 X
Track quality 100.0 %
Test CRC 7F80B0C7
Copy CRC 7F80B0C7
Accurately ripped (confidence 1) [B45A04EF] (AR v2)
Copy OK
Track 5
Filename E:\Rips\Kat Edmonson - 2014 - The Big Picture [FLAC]\05 - Crying.wav
Pre-gap length 0:00:01.97
Peak level 98.9 %
Extraction speed 6.1 X
Track quality 100.0 %
Test CRC FFBE277B
Copy CRC FFBE277B
Accurately ripped (confidence 1) [30350E02] (AR v2)
Copy OK
Track 6
Filename E:\Rips\Kat Edmonson - 2014 - The Big Picture [FLAC]\06 - All The Way.wav
Peak level 96.5 %
Extraction speed 6.1 X
Track quality 100.0 %
Test CRC C08BA674
Copy CRC C08BA674
Accurately ripped (confidence 1) [8EFEC6C2] (AR v2)
Copy OK
Track 7
Filename E:\Rips\Kat Edmonson - 2014 - The Big Picture [FLAC]\07 - You Can't Break My Heart.wav
Peak level 99.8 %
Extraction speed 6.7 X
Track quality 100.0 %
Test CRC FAB0CF07
Copy CRC FAB0CF07
Accurately ripped (confidence 1) [C3DA8561] (AR v2)
Copy OK
Track 8
Filename E:\Rips\Kat Edmonson - 2014 - The Big Picture [FLAC]\08 - Till We Start To Kiss.wav
Pre-gap length 0:00:04.70
Peak level 98.9 %
Extraction speed 7.0 X
Track quality 100.0 %
Test CRC 485B8794
Copy CRC 485B8794
Accurately ripped (confidence 1) [9A365537] (AR v2)
Copy OK
Track 9
Filename E:\Rips\Kat Edmonson - 2014 - The Big Picture [FLAC]\09 - The Best.wav
Pre-gap length 0:00:02.18
Peak level 98.9 %
Extraction speed 7.1 X
Track quality 100.0 %
Test CRC 12410EAE
Copy CRC 12410EAE
Accurately ripped (confidence 1) [3FEAF1C0] (AR v2)
Copy OK
Track 10
Filename E:\Rips\Kat Edmonson - 2014 - The Big Picture [FLAC]\10 - Dark Cloud.wav
Pre-gap length 0:00:01.70
Peak level 99.9 %
Extraction speed 5.6 X
Track quality 99.9 %
Test CRC C1E8F159
Copy CRC C1E8F159
Accurately ripped (confidence 1) [18C566A8] (AR v2)
Copy OK
Track 11
Filename E:\Rips\Kat Edmonson - 2014 - The Big Picture [FLAC]\11 - For Two.wav
Peak level 98.9 %
Extraction speed 8.0 X
Track quality 100.0 %
Test CRC E54BE4A6
Copy CRC E54BE4A6
Accurately ripped (confidence 1) [E7EED199] (AR v2)
Copy OK
Track 12
Filename E:\Rips\Kat Edmonson - 2014 - The Big Picture [FLAC]\12 - Who's Counting.wav
Pre-gap length 0:00:01.56
Peak level 99.9 %
Extraction speed 6.4 X
Track quality 99.9 %
Test CRC 6A52A7AE
Copy CRC 6A52A7AE
Accurately ripped (confidence 1) [1FCCDBEC] (AR v2)
Copy OK
All tracks accurately ripped
No errors occurred
End of status report
==== Log checksum 8F37565CF827818322EFDE57BF16D1D840CF6A4190819A4ECA08F5073078C3D0 ====
 
Содержание индексной карты (.CUE)
REM GENRE Jazz
REM DATE 2014
REM DISCID 9D09A30C
REM COMMENT "ExactAudioCopy v1.0b3"
PERFORMER "Kat Edmonson"
TITLE "The Big Picture"
FILE "01 - Rainy Day Woman.wav" WAVE
TRACK 01 AUDIO
TITLE "Rainy Day Woman"
PERFORMER "Kat Edmonson"
ISRC USSM11403011
INDEX 01 00:00:00
TRACK 02 AUDIO
TITLE "You Said Enough"
PERFORMER "Kat Edmonson"
ISRC USSM11403012
INDEX 00 03:25:30
FILE "02 - You Said Enough.wav" WAVE
INDEX 01 00:00:00
TRACK 03 AUDIO
TITLE "Oh My Love"
PERFORMER "Kat Edmonson"
ISRC USSM11403013
INDEX 00 02:51:13
FILE "03 - Oh My Love.wav" WAVE
INDEX 01 00:00:00
TRACK 04 AUDIO
TITLE "Avion"
PERFORMER "Kat Edmonson"
ISRC USSM11403014
INDEX 00 02:46:62
FILE "04 - Avion.wav" WAVE
INDEX 01 00:00:00
TRACK 05 AUDIO
TITLE "Crying"
PERFORMER "Kat Edmonson"
ISRC USSM11403015
INDEX 00 02:46:37
FILE "05 - Crying.wav" WAVE
INDEX 01 00:00:00
FILE "06 - All The Way.wav" WAVE
TRACK 06 AUDIO
TITLE "All The Way"
PERFORMER "Kat Edmonson"
ISRC USSM11403016
INDEX 01 00:00:00
FILE "07 - You Can't Break My Heart.wav" WAVE
TRACK 07 AUDIO
TITLE "You Can't Break My Heart"
PERFORMER "Kat Edmonson"
ISRC USSM11403017
INDEX 01 00:00:00
TRACK 08 AUDIO
TITLE "Till We Start To Kiss"
PERFORMER "Kat Edmonson"
ISRC USSM11403018
INDEX 00 03:45:14
FILE "08 - Till We Start To Kiss.wav" WAVE
INDEX 01 00:00:00
TRACK 09 AUDIO
TITLE "The Best"
PERFORMER "Kat Edmonson"
ISRC USSM11403019
INDEX 00 03:41:02
FILE "09 - The Best.wav" WAVE
INDEX 01 00:00:00
TRACK 10 AUDIO
TITLE "Dark Cloud"
PERFORMER "Kat Edmonson"
ISRC USSM11403020
INDEX 00 03:25:42
FILE "10 - Dark Cloud.wav" WAVE
INDEX 01 00:00:00
FILE "11 - For Two.wav" WAVE
TRACK 11 AUDIO
TITLE "For Two"
PERFORMER "Kat Edmonson"
ISRC USSM11403021
INDEX 01 00:00:00
TRACK 12 AUDIO
TITLE "Who's Counting"
PERFORMER "Kat Edmonson"
ISRC USSM11403022
INDEX 00 04:24:00
FILE "12 - Who's Counting.wav" WAVE
INDEX 01 00:00:00
 
Об альбоме
Austin-based singer/songwriter Kat Edmonson has built a cult following around her cherubic, jazz-inflected songs. And while she has always utilized the colorful harmonies and clever lyrical melodies of jazz and American popular song, at her core she's a jazz-influenced pop artist, and this album finds her embracing those sensibilities more than ever. If Edmonson's 2012 sophomore album, Way Down Low, found her moving even further afield from the cabaret jazz of 2009's Take to the Sky, then 2014's The Big Picture reveals another evolution toward an all-original approach to making music. Working with producer Mitchell Froom, Edmonson wrote and/or co-wrote all of the songs on The Big Picture. Froom, no stranger to the art of presenting quirky singer/songwriters, having worked with such similarly inclined artists as Ron Sexsmith, Crowded House, Suzanne Vega, and others, is the perfect collaborator for Edmonson. Here, he frames her lilting, Billie Holiday-meets-Blossom Dearie vocals with the kind of '50s and '60s traditional pop sound that Edmonson lightly flirted with on Way Down Low. However, on The Big Picture the singer truly makes this style her own. There is a charming, vintage vibe to many of the album's tracks, with Froom and Edmonson striking a nice balance between cuts that have a retro, orchestral AM pop sound, such as the swinging ballad "Oh My Love," and a more contemporary folk sound, as on the poignant "All the Way." Elsewhere, Edmonson delves into Ennio Morricone spaghetti Western drama ("You Can't Break My Heart"), breezy '60s lounge music ("Avion"), and Brill Building echo-chamber romanticism ("For Two"). Ultimately, by bringing all of her influences together with Froom's help, Edmonson's own unmistakable sound comes into fine focus on The Big Picture. (Matt Collar, Allmusic.com)

Even though she's labeled her music definitively, Kat Edmonson has gone far beyond her self-proclaimed “vintage pop” genre. The Big Picture has more modern compositions than her previous albums, but Edmonson's voice ties all of the different sounds together.
Kat Edmonson was initially noticed singing jazz standards alongside her own original recordings and brings that genre to the forefront immediately. Jazz songs “Rainy Day Woman” and “You Said Enough” are early highlights, mostly because they give Edmonson some space to breathe. She's at her best in these songs because she has plenty of time to improvise and lengthen some words, letting them linger in the air. Even with a loose structure, both songs have excellent hooks and are concise.
“Oh My Love” is a stunning acoustic guitar driven ballad that could be one of her best songs. On the opposite end is “Avion,” a pop rock song that never finds its footing. In “Avion,” Edmonson is competing with the band for attention, which should never be the case. She seems rushed to get her lyrics out; the best songs on this album contain her vocals are the main focus.
“You Can't Break My Heart” is similarly overproduced, in which the string section competes with Edmonson too much. Finally, “Till We Start To Kiss” is awkwardly slotted into the album and sounds so much like a commercial for a Hawaiian vacation package that it borders on parody.
Even when her vocals don't mesh with the production, the lyrics of The Big Picture are consistently personal on every track. Edmonson has writing credits for 11 songs of the 12 song album and it shows. It's an album about love, but not just the starry-eyed romantic parts. “Crying” covers a relationship falling apart due to mistrust and “Dark Cloud” is about an argument that might have permanently turned two partners against each other.
In the end, “Who's Counting” wraps up the narrative by saying no relationships are perfect, but small things can't break them up. “We try to be right, we try to be good, and we try to be strong / it's never enough, it's always too much and there's still something wrong / and yet in the meantime, we just keep moving along.”
The Big Picture is Edmonson's attempt to step outside of her usual roles and try something completely different. Her decision to write most of the songs on the album is a welcome change, but the production on a few of the songs doesn't fit. The instruments in “Avion” and “Till We Start To Kiss” don't suit Edmonson's voice and “You Can't Break My Heart” and “For Two” get tedious with little happening for long periods. However, Edmonson is still an excellent singer and her incomparable vocals make the album worth listening to through the low points. (Travis Boswell)
 
Состав
Kat Edmonson - vocals, chimes, arrangements
Mitchell Froom - celeste, glockenspiel, harmonium, keyboards, organ, piano, electric piano, arrangements
Dan Higgins - chimes, clarinet, bass clarinet, sax (alto, baritone, tenor)
Lori Stuntz - trombone, bass trombone
Jeff Young - piano
George Doering - guitar
Val McCallum - banjo, guitar
Brad Dutz - vibraphone
Bob Gloub - bass
Davey Faragher - bass
David Piltch - double bass
Ian Walker - double bass
Pete Thomas - drums, percussion
Michael Urbano - drums, percussion
Brian Wolfe - drums, percussion
Aaron Thurston - drums
Matt Chamberlain - drums
Chris Lovejoy - marimba, percussion
Greg Leisz - pedal steel
Andrew Bulbrook - violin
Benjamin Jacobson - violin
Eric Byers - cello
Jonathan Moerschel - viola
По всем вопросам пишите личное сообщение пользователю M0p94ok.
15:44
576
Нет комментариев. Ваш будет первым!