Поиск

(Vocal Jazz) Tina May (with Nikki Iles & Tony Coe) - More Than You Know - 2004, FLAC (tracks+.cue), lossless

(Vocal Jazz) Tina May (with Nikki Iles & Tony Coe) - More Than You Know - 2004, FLAC (tracks+.cue), lossless
Треклист:
Tina May Nikki Iles Tony Coe
more than you know
Жанр: Vocal Jazz
Страна-производитель диска: UK
Год издания диска: 2004
Издатель (лейбл): 33Jazz Records
Номер по каталогу: 33JAZZ 100
Аудиокодек: FLAC (*.flac)
Тип рипа: tracks+.cue
Битрейт аудио: lossless
Продолжительность: 56:24
Наличие сканов в содержимом раздачи: нет
Источник (релизер): nnm, thanks nbutino
Треклист:
1 The Touch of Your Lips
2 Very Early
3 More Than You Know
4 Ocean
5 Sometime Ago
6 Cruel September
7 November Girl
8 What Kind of Fool Am I?
9 My Man's Gone Now
10 So Long Big Time
Tina May vocals
Nikki Iles piano
Tony Coe tenor sax, clarinet
 
Лог EAC
Exact Audio Copy V1.0 beta 2 from 29. April 2011
EAC extraction logfile from 30. August 2011, 13:19
Tina May, Nikki Iles and Tony Coe / More Than You Know
Used drive : hp DVD-RAM GH60L Adapter: 2 ID: 1
Read mode : Secure
Utilize accurate stream : Yes
Defeat audio cache : No
Make use of C2 pointers : No
Read offset correction : 667
Overread into Lead-In and Lead-Out : No
Fill up missing offset samples with silence : Yes
Delete leading and trailing silent blocks : No
Null samples used in CRC calculations : Yes
Used interface : Native Win32 interface for Win NT & 2000
Gap handling : Appended to previous track
Used output format : User Defined Encoder
Selected bitrate : 896 kBit/s
Quality : High
Add ID3 tag : No
Command line compressor : C:\Program Files\Exact Audio Copy\FLAC\FLAC.EXE
Additional command line options : -6 -V -T "ARTIST=%artist%" -T "TITLE=%title%" -T "ALBUM=%albumtitle%" -T "DATE=%year%" -T "TRACKNUMBER=%tracknr%" -T "GENRE=%genre%" -T "COMMENT=%comment%" -T "BAND=%albuminterpret%" -T "COMPOSER=%composer%" %haslyrics%--ta
TOC of the extracted CD
Track | Start | Length | Start sector | End sector
---------------------------------------------------------
1 | 0:00.00 | 5:58.72 | 0 | 26921
2 | 5:58.72 | 5:37.56 | 26922 | 52252
3 | 11:36.53 | 6:52.06 | 52253 | 83158
4 | 18:28.59 | 5:23.57 | 83159 | 107440
5 | 23:52.41 | 5:42.00 | 107441 | 133090
6 | 29:34.41 | 4:35.19 | 133091 | 153734
7 | 34:09.60 | 5:25.27 | 153735 | 178136
8 | 39:35.12 | 4:52.61 | 178137 | 200097
9 | 44:27.73 | 6:04.56 | 200098 | 227453
10 | 50:32.54 | 5:49.53 | 227454 | 253681
Track 1
Filename C:\Users\dogovor1\Music\Jazz\LOSSLESS-EAC\Tina May\More than you know\01. The Touch Of Your Lips.wav
Pre-gap length 0:00:02.00
Peak level 89.1 %
Extraction speed 3.4 X
Track quality 100.0 %
Copy CRC E9F96664
Cannot be verified as accurate (confidence 1) [2EB079D7], AccurateRip returned [DA2ABF38] (AR v2)
Copy OK
Track 2
Filename C:\Users\dogovor1\Music\Jazz\LOSSLESS-EAC\Tina May\More than you know\02. Very Early.wav
Peak level 89.1 %
Extraction speed 3.9 X
Track quality 100.0 %
Copy CRC 0C4CC7F1
Cannot be verified as accurate (confidence 1) [6CE4B183], AccurateRip returned [BB439CA2] (AR v2)
Copy OK
Track 3
Filename C:\Users\dogovor1\Music\Jazz\LOSSLESS-EAC\Tina May\More than you know\03. More Than You Know.wav
Peak level 89.1 %
Extraction speed 4.3 X
Track quality 100.0 %
Copy CRC FB73D9D4
Cannot be verified as accurate (confidence 1) [48D6C867], AccurateRip returned [79A53B4C] (AR v2)
Copy OK
Track 4
Filename C:\Users\dogovor1\Music\Jazz\LOSSLESS-EAC\Tina May\More than you know\04. Ocean.wav
Peak level 89.1 %
Extraction speed 4.6 X
Track quality 100.0 %
Copy CRC 3525FC8B
Cannot be verified as accurate (confidence 1) [1E0E0BC8], AccurateRip returned [1DC902BE] (AR v2)
Copy OK
Track 5
Filename C:\Users\dogovor1\Music\Jazz\LOSSLESS-EAC\Tina May\More than you know\05. Sometime Ago.wav
Peak level 89.1 %
Extraction speed 4.8 X
Track quality 100.0 %
Copy CRC FAD6B419
Cannot be verified as accurate (confidence 1) [FE0E7303], AccurateRip returned [6ADDAC89] (AR v2)
Copy OK
Track 6
Filename C:\Users\dogovor1\Music\Jazz\LOSSLESS-EAC\Tina May\More than you know\06. Cruel September.wav
Peak level 89.1 %
Extraction speed 5.2 X
Track quality 100.0 %
Copy CRC E23634D7
Cannot be verified as accurate (confidence 1) [CE1BFA78], AccurateRip returned [37D0ED16] (AR v2)
Copy OK
Track 7
Filename C:\Users\dogovor1\Music\Jazz\LOSSLESS-EAC\Tina May\More than you know\07. November Girl.wav
Peak level 89.1 %
Extraction speed 5.2 X
Track quality 99.9 %
Copy CRC 2B4AAD39
Cannot be verified as accurate (confidence 1) [1233C2C1], AccurateRip returned [638017B0] (AR v2)
Copy OK
Track 8
Filename C:\Users\dogovor1\Music\Jazz\LOSSLESS-EAC\Tina May\More than you know\08. What Kind Of Fool Am I.wav
Peak level 89.1 %
Extraction speed 5.5 X
Track quality 99.9 %
Copy CRC 548FEDEF
Cannot be verified as accurate (confidence 1) [733B55CB], AccurateRip returned [F68F4E1E] (AR v2)
Copy OK
Track 9
Filename C:\Users\dogovor1\Music\Jazz\LOSSLESS-EAC\Tina May\More than you know\09. My Man's Gone Now.wav
Peak level 89.1 %
Extraction speed 5.8 X
Track quality 100.0 %
Copy CRC ADBCB593
Cannot be verified as accurate (confidence 1) [3F41FD4B], AccurateRip returned [D4B51FF3] (AR v2)
Copy OK
Track 10
Filename C:\Users\dogovor1\Music\Jazz\LOSSLESS-EAC\Tina May\More than you know\10. So Long Big Time.wav
Peak level 89.1 %
Extraction speed 6.2 X
Track quality 100.0 %
Copy CRC 7717CD4E
Cannot be verified as accurate (confidence 1) [1754EF20], AccurateRip returned [129FEC78] (AR v2)
Copy OK
No tracks could be verified as accurate
You may have a different pressing from the one(s) in the database
No errors occurred
End of status report
==== Log checksum 1FB4EF44FE17132B9189412B628CC02C19417CE995B6B0795DB862DA59D806AF ====
 
Содержание индексной карты (.CUE)
REM GENRE Jazz
REM DISCID 820D360A
REM COMMENT "ExactAudioCopy v1.0b2"
PERFORMER "Tina May, Nikki Iles and Tony Coe"
TITLE "More Than You Know"
FILE "01. The Touch Of Your Lips.wav" WAVE
TRACK 01 AUDIO
TITLE "The Touch Of Your Lips"
PERFORMER "Tina May, Nikki Iles and Tony Coe"
INDEX 01 00:00:00
FILE "02. Very Early.wav" WAVE
TRACK 02 AUDIO
TITLE "Very Early"
PERFORMER "Tina May, Nikki Iles and Tony Coe"
INDEX 01 00:00:00
FILE "03. More Than You Know.wav" WAVE
TRACK 03 AUDIO
TITLE "More Than You Know"
PERFORMER "Tina May, Nikki Iles and Tony Coe"
INDEX 01 00:00:00
FILE "04. Ocean.wav" WAVE
TRACK 04 AUDIO
TITLE "Ocean"
PERFORMER "Tina May, Nikki Iles and Tony Coe"
INDEX 01 00:00:00
FILE "05. Sometime Ago.wav" WAVE
TRACK 05 AUDIO
TITLE "Sometime Ago"
PERFORMER "Tina May, Nikki Iles and Tony Coe"
INDEX 01 00:00:00
FILE "06. Cruel September.wav" WAVE
TRACK 06 AUDIO
TITLE "Cruel September"
PERFORMER "Tina May, Nikki Iles and Tony Coe"
INDEX 01 00:00:00
FILE "07. November Girl.wav" WAVE
TRACK 07 AUDIO
TITLE "November Girl"
PERFORMER "Tina May, Nikki Iles and Tony Coe"
INDEX 01 00:00:00
FILE "08. What Kind Of Fool Am I.wav" WAVE
TRACK 08 AUDIO
TITLE "What Kind Of Fool Am I?"
PERFORMER "Tina May, Nikki Iles and Tony Coe"
INDEX 01 00:00:00
FILE "09. My Man's Gone Now.wav" WAVE
TRACK 09 AUDIO
TITLE "My Man's Gone Now"
PERFORMER "Tina May, Nikki Iles and Tony Coe"
INDEX 01 00:00:00
FILE "10. So Long Big Time.wav" WAVE
TRACK 10 AUDIO
TITLE "So Long Big Time"
PERFORMER "Tina May, Nikki Iles and Tony Coe"
INDEX 01 00:00:00
 
Лог Audiochecker
AUDIOCHECKER v2.0 beta (build 457) - by Dester - opdester@freemail.hu
~~~~~~~~~~~~~~~~~~~~~~~~~~~~~~~~~~
Started at: суббота, 17. 12. 2011. - 11:37.25
10 files found
01 -===- C:\Users\пользователь\Videos\Tina May - More Than You Know (2004)\01. The Touch Of Your Lips.flac
Extracted successfully
Conclusion: this track is CDDA with probability 100%
Tempfile successfully deleted.
02 -===- C:\Users\пользователь\Videos\Tina May - More Than You Know (2004)\02. Very Early.flac
Extracted successfully
Conclusion: this track is CDDA with probability 100%
Tempfile successfully deleted.
03 -===- C:\Users\пользователь\Videos\Tina May - More Than You Know (2004)\03. More Than You Know.flac
Extracted successfully
Conclusion: this track is CDDA with probability 99%
Tempfile successfully deleted.
04 -===- C:\Users\пользователь\Videos\Tina May - More Than You Know (2004)\04. Ocean.flac
Extracted successfully
Conclusion: this track is CDDA with probability 99%
Tempfile successfully deleted.
05 -===- C:\Users\пользователь\Videos\Tina May - More Than You Know (2004)\05. Sometime Ago.flac
Extracted successfully
Conclusion: this track is CDDA with probability 100%
Tempfile successfully deleted.
06 -===- C:\Users\пользователь\Videos\Tina May - More Than You Know (2004)\06. Cruel September.flac
Extracted successfully
Conclusion: this track is CDDA with probability 100%
Tempfile successfully deleted.
07 -===- C:\Users\пользователь\Videos\Tina May - More Than You Know (2004)\07. November Girl.flac
Extracted successfully
Conclusion: this track is CDDA with probability 100%
Tempfile successfully deleted.
08 -===- C:\Users\пользователь\Videos\Tina May - More Than You Know (2004)\08. What Kind Of Fool Am I.flac
Extracted successfully
Conclusion: this track is CDDA with probability 100%
Tempfile successfully deleted.
09 -===- C:\Users\пользователь\Videos\Tina May - More Than You Know (2004)\09. My Man's Gone Now.flac
Extracted successfully
Conclusion: this track is CDDA with probability 100%
Tempfile successfully deleted.
10 -===- C:\Users\пользователь\Videos\Tina May - More Than You Know (2004)\10. So Long Big Time.flac
Extracted successfully
Conclusion: this track is CDDA with probability 100%
Tempfile successfully deleted.
Finished at: суббота, 17. 12. 2011. - 11:43.41 (operation time: 0:06.15)
 
Reviews
Although a working trio for some time now, this is the first time I have heard the group and what an absolute delight it is. May is one of the brightest jazz singing stars to emerge in recent years;Iles is justifiably one of the busiest pianists on the UK jazz scene; and Coe is simply Coe, which is about as good as it gets.
The three are top-class performers, of course, but all-star packages are by no means a guarentee of success.
This time, though, it works out exactly as fans of each of the three participants might hope. As a fan of all three, I am three times lucky to have heard this delightful set. May sings with a blend of sensuality and Iles supports and solos with verve; and Coe whether on clarinet or saxophone brings to the proceedings that vibrant profundity that marks everything that he does. The interpretations have depth and character, each musician bringing to the feast their special performing skills allied to musical integrity that results in a CD that is intellectually and emotionally demanding and satisfying in equal measure.
Consider, as an arbitrary chosen example,' More than You Know' which is given a darly brooding reading that transforms it into something that is almost an art song, in the best sense of that frequently misused term. Good sound, minimal notes, which includes mention of the fact that the label is 14 years old and this , as its number indicates , its 100th release. Congratulations all round.
If you haven't already worked it out for yourself, this CD is very warmly recommended. (Bruce Crowther, Jazz Journal International)
Voice, piano and tenor saxophone or clarinet; with an odd setup like that, you just don't know what to expect. In the case of these three, however, the chances are that it will turn out to be an interesting, quirky and, above all, enjoyable hour's music. And it is. In the first place, they have performed together so much that they must enjoy each other's company. That enjoyment includes a shared sense of what is possible with this tiny format and complete trust in one another's musical instincts. Tina May has a fine, expressive voice, with immaculate pitch, clear diction and no annoying mannerisms. Nikki Iles plays the piano with a crystalline touch and a technique that enables her to cover for the missing double bass when necessary. Coe is one of today's best clarinettists, in any idiom, with an inquisitive, slightly irascible saxophone style that is quite inimitable. The result is like overhearing an intelligent, often witty three-way conversation. (Dave Gelly)
Тина Мэй - одна из ведущих джазовых вокалисток Британии. Родилась 30 марта 1961 года в Глостере. Изучала вокал в University College, Кардифф. В начале 80-х годов основала и возглавила продюсерскую компанию Back Door Theatre Company, осуществлявшую различные театральные постановки. Затем переехала в Париж, выступала в клубах, в 1989 году организовала свой первый квартет и очень скоро приобрела широкую известность среди европейских любителей джаза благодаря великолепным данным - чистому сопрано, диапазону в три октавы, безупречному слуху, отточенным техническим приемам. Вскоре Тина заключила контракт с британским лейблом 33Jazz Records, на котором выпустила большую часть из своих полутора десятков альбомов; сотрудничала с David Newton, Marian McPartland, Cleo Laine, John Dankworth, барабанщиком Clarke Tracey (который также был её мужем); в разное время преподавала в музыкальном колледже Тринити, консерватории Бирмингема, Королевской консерватории. В 1998-ом Мэй на British Jazz Awards была названа лучшей вокалисткой года как по мнению слушателей, так и по выбору критиков! (Number One Vocalist и Critic's Number One Choice) (оф. сайт)
Лог, увы, не без изъяна (defeat audio cache: no), но учитывая, что альбомов этой певицы на трекере вообще нет...
Приватный:
Нет (DHT включён)
Размер:
293.28 Мб (307,527,419 байт) » файлов: 15
Участники:
0 раздают, 0 качают (0 участников всего)
Внешние участники:
3 раздают, 1 качают (4 участников всего) [ Обновить ]
Есть вопросы - пишите личное сообщение пользователю M0p94ok.
01:25
28
Нет комментариев. Ваш будет первым!