Поиск

(Vocal Jazz) Tania Maria — Love Explosion (1983) — 1984, FLAC (image+.cue), lossless

Треклист:
Tania Maria — Love Explosion (1983)
Жанр: Vocal Jazz
Год издания диска: 1984
Лейбл: Concord
Номер по каталогу: CCD-4230
Аудиокодек: FLAC (*.flac)
Тип рипа: image+.cue
Битрейт аудио: lossless
Продолжительность: 36:07
Релизер: pcharlie46
Сканы есть
Треклист:
01. Funky Tamborim (3:15)
02. It's All In My Hands (4:54)
03. You've Got Me Feeling Your Love (4:13)
04. Love Explosion (6:16)
05. Bela Be Bela (3:50)
06. The Rainbow Of Your Love (4:22)
07. Deep Cove View (3:16)
08. Pour Toi (6:01)
 
 
Лог создания рипа
Exact Audio Copy V0.99 prebeta 5 from 4. May 2009
EAC extraction logfile from 7. January 2011, 13:47
Tania Maria / Love Explosion
Used drive : HL-DT-STDVD-RAM GH22LS30 Adapter: 2 ID: 1
Read mode : Secure
Utilize accurate stream : Yes
Defeat audio cache : Yes
Make use of C2 pointers : No
Read offset correction : 102
Overread into Lead-In and Lead-Out : No
Fill up missing offset samples with silence : Yes
Delete leading and trailing silent blocks : No
Null samples used in CRC calculations : No
Used interface : Native Win32 interface for Win NT & 2000
Used output format : Internal WAV Routines
Sample format : 44.100 Hz; 16 Bit; Stereo
TOC of the extracted CD
Track | Start | Length | Start sector | End sector
---------------------------------------------------------
1 | 0:00.00 | 3:14.73 | 0 | 14622
2 | 3:14.73 | 4:54.02 | 14623 | 36674
3 | 8:09.00 | 4:12.73 | 36675 | 55647
4 | 12:21.73 | 6:16.02 | 55648 | 83849
5 | 18:38.00 | 3:50.00 | 83850 | 101099
6 | 22:28.00 | 4:22.03 | 101100 | 120752
7 | 26:50.03 | 3:15.72 | 120753 | 135449
8 | 30:06.00 | 6:01.13 | 135450 | 162537
Range status and errors
Selected range
Filename E:\EAC\Tania Maria - Love Explosion [wav]\Tania Maria - Love Explosion.wav
Peak level 49.8 %
Range quality 100.0 %
Test CRC CED17EA7
Copy CRC CED17EA7
Copy OK
No errors occurred
AccurateRip summary
Track 1 accurately ripped (confidence 3) [D0311A2C]
Track 2 accurately ripped (confidence 3) [F1965B60]
Track 3 accurately ripped (confidence 3) [6BB1D9D8]
Track 4 accurately ripped (confidence 3) [39B09073]
Track 5 accurately ripped (confidence 3) [F074E180]
Track 6 accurately ripped (confidence 3) [A0448808]
Track 7 accurately ripped (confidence 3) [91511361]
Track 8 accurately ripped (confidence 3) [CB2C01D8]
All tracks accurately ripped
End of status report
 
Содержание индексной карты (.CUE)
REM GENRE Fusion
REM DATE 1983
REM DISCID 56087708
REM COMMENT "ExactAudioCopy v0.99pb5"
PERFORMER "Tania Maria"
TITLE "Love Explosion"
FILE "Tania Maria - Love Explosion.flac" WAVE
TRACK 01 AUDIO
TITLE "Funky Tamborim"
PERFORMER "Tania Maria"
INDEX 01 00:00:00
TRACK 02 AUDIO
TITLE "It's All In My Hands"
PERFORMER "Tania Maria"
INDEX 00 03:12:33
INDEX 01 03:14:73
TRACK 03 AUDIO
TITLE "You've Got Me Feeling Your Love"
PERFORMER "Tania Maria"
INDEX 00 08:07:60
INDEX 01 08:09:00
TRACK 04 AUDIO
TITLE "Love Explosion"
PERFORMER "Tania Maria"
INDEX 00 12:20:38
INDEX 01 12:21:73
TRACK 05 AUDIO
TITLE "Bela Be Bela"
PERFORMER "Tania Maria"
INDEX 00 18:35:20
INDEX 01 18:38:00
TRACK 06 AUDIO
TITLE "The Rainbow Of Your Love"
PERFORMER "Tania Maria"
INDEX 00 22:25:40
INDEX 01 22:28:00
TRACK 07 AUDIO
TITLE "Deep Cove View"
PERFORMER "Tania Maria"
INDEX 00 26:48:18
INDEX 01 26:50:03
TRACK 08 AUDIO
TITLE "Pour Toi"
PERFORMER "Tania Maria"
INDEX 00 30:03:50
INDEX 01 30:06:00
 
CUETools log
[CUETools log; Date: 23.12.2011 1:42:14; Version: 2.0.9]
[CTDB TOCID: SSVPxtIoAU9ExYtkiLl1uR2UbHQ-] found.
[ CTDBID ] Status
[ead674ed] (4/4) Accurately ripped
[AccurateRip ID: 000ad7ed-0048eda3-56087708] found.
Track [ CRC ] Status
01 [d0311a2c] (4/4) Accurately ripped
02 [f1965b60] (4/4) Accurately ripped
03 [6bb1d9d8] (4/4) Accurately ripped
04 [39b09073] (4/4) Accurately ripped
05 [f074e180] (4/4) Accurately ripped
06 [a0448808] (4/4) Accurately ripped
07 [91511361] (4/4) Accurately ripped
08 [cb2c01d8] (4/4) Accurately ripped
Track Peak [ CRC32 ] [W/O NULL] [ LOG ]
-- 49,8 [B05640F9] [CED17EA7] W/O NULL
01 42,6 [20F88522] [2CB74A7C]
02 42,6 [D24831F2] [F3EA41BA]
03 42,6 [16B0FD67] [7D5B98BC]
04 42,6 [840C1542] [A3C64FE8]
05 45,7 [071C52DB] [C0FAD725]
06 42,3 [0D7462D1] [64605B9C]
07 42,9 [0C1B217D] [4603FA6E]
08 49,8 [1516F06D] [3A26C0F0]
22:06
402
Нет комментариев. Ваш будет первым!