Вы используете незарегистрированную версию компонента "Вкладки"!

Поиск

(Vocal Jazz, Swing) Ethel Waters - Am I Blue? (1925-1939) - 1999, FLAC (tracks+.cue), lossless

(Vocal Jazz, Swing) Ethel Waters - Am I Blue? (1925-1939) - 1999, FLAC (tracks+.cue), lossless
Треклист:
Ethel Waters - Am I Blue?
Жанр: Vocal Jazz, Swing
Страна-производитель диска: Великобритания
Год издания: 1999
Издатель (лейбл): ASV Living Era
Номер по каталогу: CD AJA 5290
Страна: США
Аудиокодек: FLAC (*.flac)
Тип рипа: tracks+.cue
Битрейт аудио: lossless
Продолжительность: 74:09
Источник (релизер): Temerit (what)
Наличие сканов в содержимом раздачи: нет
Треклист:
01. Am I Blue? (3:24)
02. Sweet Georgia Brown (3:12)
03. Dinah (3:17)
04. I'm Coming, Virginia (3:06)
05. Birmingham Bertha (3:00)
06. Second-Handed Man (2:52)
07. True Blue Lou (3:06)
08. Shoo Shoo Boogie Boo (2:54)
09. Trav'lin' All Alone (3:03)
10. Long Lean Lanky Mama (2:54)
11. You Can't Stop Me from Loving You (3:28)
12. I Can't Give You Anything But Love, Baby (3:06)
13. Stormy Weather (3:12)
14. Don't Blame Me (3:14)
15. Shadows on the Swanee (2:59)
16. Heat Wave (3:01)
17. I Just Couldn't Take It, Baby (3:05)
18. A Hundred Years from Today (2:57)
19. Miss Otis Regrets (3:07)
20. Moonglow (3:21)
21. You're a Sweetheart (2:58)
22. I'll Get Along Somehow (2:31)
23. Baby, What Else Can I Do? (3:01)
24. Waitin' at the End of the Road (3:21)
 
Лог создания рипа
X Lossless Decoder version 20130720 (144.0)
XLD extraction logfile from 2013-09-04 17:40:05 -0700
Ethel Waters / Am I Blue?
Used drive : OPTIARC DVD RW AD-5970H (revision 3APE)
Media type : Pressed CD
Ripper mode : XLD Secure Ripper
Disable audio cache : OK for the drive with a cache less than 1375KiB
Make use of C2 pointers : NO
Read offset correction : 48
Max retry count : 20
Gap status : Analyzed, Appended (except HTOA)
TOC of the extracted CD
Track | Start | Length | Start sector | End sector
---------------------------------------------------------
1 | 00:00:00 | 03:24:32 | 0 | 15331
2 | 03:24:32 | 03:11:70 | 15332 | 29726
3 | 06:36:27 | 03:16:45 | 29727 | 44471
4 | 09:52:72 | 03:05:68 | 44472 | 58414
5 | 12:58:65 | 02:59:60 | 58415 | 71899
6 | 15:58:50 | 02:52:25 | 71900 | 84824
7 | 18:51:00 | 03:05:62 | 84825 | 98761
8 | 21:56:62 | 02:53:43 | 98762 | 111779
9 | 24:50:30 | 03:03:07 | 111780 | 125511
10 | 27:53:37 | 02:53:55 | 125512 | 138541
11 | 30:47:17 | 03:27:55 | 138542 | 154121
12 | 34:14:72 | 03:06:35 | 154122 | 168106
13 | 37:21:32 | 03:11:48 | 168107 | 182479
14 | 40:33:05 | 03:13:42 | 182480 | 196996
15 | 43:46:47 | 02:59:30 | 196997 | 210451
16 | 46:46:02 | 03:01:33 | 210452 | 224059
17 | 49:47:35 | 03:05:32 | 224060 | 237966
18 | 52:52:67 | 02:57:05 | 237967 | 251246
19 | 55:49:72 | 03:07:28 | 251247 | 265299
20 | 58:57:25 | 03:20:57 | 265300 | 280356
21 | 62:18:07 | 02:58:20 | 280357 | 293726
22 | 65:16:27 | 02:30:43 | 293727 | 305019
23 | 67:46:70 | 03:01:20 | 305020 | 318614
24 | 70:48:15 | 03:20:70 | 318615 | 333684
AccurateRip Summary
Disc not found in AccurateRip DB.
All Tracks
Album gain : -3.78 dB
Peak : 1.000000
Statistics
Read error : 0
Jitter error (maybe fixed) : 0
Retry sector count : 0
Damaged sector count : 0
Track 01
Filename : /Users/andywilm/Desktop/Ethel Waters - Am I Blue? (1999) [FLAC]/01 Am I Blue?.flac
Pre-gap length : 00:02:00
Track gain : -2.66 dB
Peak : 0.999969
CRC32 hash (test run) : F2CB80E4
CRC32 hash : F2CB80E4
CRC32 hash (skip zero) : 3BF78213
AccurateRip v1 signature : 24972F36
AccurateRip v2 signature : 9568162C
->Track not present in AccurateRip database.
Statistics
Read error : 0
Jitter error (maybe fixed) : 0
Retry sector count : 0
Damaged sector count : 0
Track 02
Filename : /Users/andywilm/Desktop/Ethel Waters - Am I Blue? (1999) [FLAC]/02 Sweet Georgia Brown.flac
Pre-gap length : 00:02:57
Track gain : -5.99 dB
Peak : 0.806061
CRC32 hash (test run) : CB88D0C5
CRC32 hash : CB88D0C5
CRC32 hash (skip zero) : 75A96A0F
AccurateRip v1 signature : DA350ED0
AccurateRip v2 signature : B3D915BB
->Track not present in AccurateRip database.
Statistics
Read error : 0
Jitter error (maybe fixed) : 0
Retry sector count : 0
Damaged sector count : 0
Track 03
Filename : /Users/andywilm/Desktop/Ethel Waters - Am I Blue? (1999) [FLAC]/03 Dinah.flac
Pre-gap length : 00:02:57
Track gain : -5.54 dB
Peak : 0.920837
CRC32 hash (test run) : 643CE528
CRC32 hash : 643CE528
CRC32 hash (skip zero) : CAA49D77
AccurateRip v1 signature : AD929D06
AccurateRip v2 signature : DBE69C8A
->Track not present in AccurateRip database.
Statistics
Read error : 0
Jitter error (maybe fixed) : 0
Retry sector count : 0
Damaged sector count : 0
Track 04
Filename : /Users/andywilm/Desktop/Ethel Waters - Am I Blue? (1999) [FLAC]/04 I'm Coming, Virgina.flac
Pre-gap length : 00:02:45
Track gain : -3.29 dB
Peak : 0.717865
CRC32 hash (test run) : 4A2768C8
CRC32 hash : 4A2768C8
CRC32 hash (skip zero) : 1EF7CB22
AccurateRip v1 signature : 1F7F9375
AccurateRip v2 signature : 1DEB9402
->Track not present in AccurateRip database.
Statistics
Read error : 0
Jitter error (maybe fixed) : 0
Retry sector count : 0
Damaged sector count : 0
Track 05
Filename : /Users/andywilm/Desktop/Ethel Waters - Am I Blue? (1999) [FLAC]/05 Birmingham Bertha.flac
Pre-gap length : 00:02:58
Track gain : -0.68 dB
Peak : 1.000000
CRC32 hash (test run) : 1AD69F03
CRC32 hash : 1AD69F03
CRC32 hash (skip zero) : B0B0078B
AccurateRip v1 signature : 8381531C
AccurateRip v2 signature : 0C287742
->Track not present in AccurateRip database.
Statistics
Read error : 0
Jitter error (maybe fixed) : 0
Retry sector count : 0
Damaged sector count : 0
Track 06
Filename : /Users/andywilm/Desktop/Ethel Waters - Am I Blue? (1999) [FLAC]/06 Second-Handed Man.flac
Pre-gap length : 00:02:45
Track gain : -4.15 dB
Peak : 0.927734
CRC32 hash (test run) : 8BBB40C2
CRC32 hash : 8BBB40C2
CRC32 hash (skip zero) : 326254F1
AccurateRip v1 signature : 8D2B9B10
AccurateRip v2 signature : 975F9405
->Track not present in AccurateRip database.
Statistics
Read error : 0
Jitter error (maybe fixed) : 0
Retry sector count : 0
Damaged sector count : 0
Track 07
Filename : /Users/andywilm/Desktop/Ethel Waters - Am I Blue? (1999) [FLAC]/07 True Blue Lou.flac
Pre-gap length : 00:02:58
Track gain : -2.07 dB
Peak : 0.922333
CRC32 hash (test run) : 069418FB
CRC32 hash : 069418FB
CRC32 hash (skip zero) : B356E95B
AccurateRip v1 signature : 07ADCD2B
AccurateRip v2 signature : 386DADE6
->Track not present in AccurateRip database.
Statistics
Read error : 0
Jitter error (maybe fixed) : 0
Retry sector count : 0
Damaged sector count : 0
Track 08
Filename : /Users/andywilm/Desktop/Ethel Waters - Am I Blue? (1999) [FLAC]/08 Shoo Shoo Boogie Boo.flac
Pre-gap length : 00:02:57
Track gain : -3.36 dB
Peak : 0.760254
CRC32 hash (test run) : 639E0A43
CRC32 hash : 639E0A43
CRC32 hash (skip zero) : 85868E59
AccurateRip v1 signature : B1735C5C
AccurateRip v2 signature : AC30437A
->Track not present in AccurateRip database.
Statistics
Read error : 0
Jitter error (maybe fixed) : 0
Retry sector count : 0
Damaged sector count : 0
Track 09
Filename : /Users/andywilm/Desktop/Ethel Waters - Am I Blue? (1999) [FLAC]/09 Trav'lin' All Alone.flac
Pre-gap length : 00:02:55
Track gain : -3.46 dB
Peak : 0.858521
CRC32 hash (test run) : 3A493FCE
CRC32 hash : 3A493FCE
CRC32 hash (skip zero) : 1B2D9F17
AccurateRip v1 signature : 0B47F70C
AccurateRip v2 signature : 1DA85690
->Track not present in AccurateRip database.
Statistics
Read error : 0
Jitter error (maybe fixed) : 0
Retry sector count : 0
Damaged sector count : 0
Track 10
Filename : /Users/andywilm/Desktop/Ethel Waters - Am I Blue? (1999) [FLAC]/10 Long Lean Lanky Mama.flac
Pre-gap length : 00:02:27
Track gain : -1.68 dB
Peak : 0.617554
CRC32 hash (test run) : DBF859D9
CRC32 hash : DBF859D9
CRC32 hash (skip zero) : D3CD854F
AccurateRip v1 signature : 4CA914E2
AccurateRip v2 signature : CB0A421A
->Track not present in AccurateRip database.
Statistics
Read error : 0
Jitter error (maybe fixed) : 0
Retry sector count : 0
Damaged sector count : 0
Track 11
Filename : /Users/andywilm/Desktop/Ethel Waters - Am I Blue? (1999) [FLAC]/11 You Can't Stop Me from Loving You.flac
Pre-gap length : 00:02:42
Track gain : -2.86 dB
Peak : 0.896881
CRC32 hash (test run) : 423EA020
CRC32 hash : 423EA020
CRC32 hash (skip zero) : B54D4385
AccurateRip v1 signature : 809D6782
AccurateRip v2 signature : EA24FA14
->Track not present in AccurateRip database.
Statistics
Read error : 0
Jitter error (maybe fixed) : 0
Retry sector count : 0
Damaged sector count : 0
Track 12
Filename : /Users/andywilm/Desktop/Ethel Waters - Am I Blue? (1999) [FLAC]/12 I Can't Give You Anything but Love, Baby.flac
Pre-gap length : 00:02:57
Track gain : -5.74 dB
Peak : 1.000000
CRC32 hash (test run) : 96FB3298
CRC32 hash : 96FB3298
CRC32 hash (skip zero) : 6E6AFE14
AccurateRip v1 signature : 44143D31
AccurateRip v2 signature : 83E2BC7F
->Track not present in AccurateRip database.
Statistics
Read error : 0
Jitter error (maybe fixed) : 0
Retry sector count : 0
Damaged sector count : 0
Track 13
Filename : /Users/andywilm/Desktop/Ethel Waters - Am I Blue? (1999) [FLAC]/13 Stormy Weather.flac
Pre-gap length : 00:02:57
Track gain : -2.78 dB
Peak : 0.988495
CRC32 hash (test run) : F1D0A906
CRC32 hash : F1D0A906
CRC32 hash (skip zero) : 2AFD1589
AccurateRip v1 signature : C939ED5A
AccurateRip v2 signature : 7820FA04
->Track not present in AccurateRip database.
Statistics
Read error : 0
Jitter error (maybe fixed) : 0
Retry sector count : 0
Damaged sector count : 0
Track 14
Filename : /Users/andywilm/Desktop/Ethel Waters - Am I Blue? (1999) [FLAC]/14 Don't Blame Me.flac
Pre-gap length : 00:02:58
Track gain : -2.71 dB
Peak : 0.923431
CRC32 hash (test run) : 7C1CCE79
CRC32 hash : 7C1CCE79
CRC32 hash (skip zero) : 2761B3A0
AccurateRip v1 signature : F7F7CF64
AccurateRip v2 signature : 4C1D2430
->Track not present in AccurateRip database.
Statistics
Read error : 0
Jitter error (maybe fixed) : 0
Retry sector count : 0
Damaged sector count : 0
Track 15
Filename : /Users/andywilm/Desktop/Ethel Waters - Am I Blue? (1999) [FLAC]/15 Shadows on the Swanee.flac
Pre-gap length : 00:02:57
Track gain : -3.13 dB
Peak : 0.900696
CRC32 hash (test run) : 2D00F757
CRC32 hash : 2D00F757
CRC32 hash (skip zero) : 7A98F99C
AccurateRip v1 signature : 10E8D1D5
AccurateRip v2 signature : C93D67DC
->Track not present in AccurateRip database.
Statistics
Read error : 0
Jitter error (maybe fixed) : 0
Retry sector count : 0
Damaged sector count : 0
Track 16
Filename : /Users/andywilm/Desktop/Ethel Waters - Am I Blue? (1999) [FLAC]/16 Heat Wave.flac
Pre-gap length : 00:02:57
Track gain : -5.37 dB
Peak : 1.000000
CRC32 hash (test run) : 3784974F
CRC32 hash : 3784974F
CRC32 hash (skip zero) : C492EAE3
AccurateRip v1 signature : E0628DCA
AccurateRip v2 signature : BA82975C
->Track not present in AccurateRip database.
Statistics
Read error : 0
Jitter error (maybe fixed) : 0
Retry sector count : 0
Damaged sector count : 0
Track 17
Filename : /Users/andywilm/Desktop/Ethel Waters - Am I Blue? (1999) [FLAC]/17 I Just Couldn't Take It, Baby.flac
Pre-gap length : 00:02:48
Track gain : -3.31 dB
Peak : 1.000000
CRC32 hash (test run) : 57D5960C
CRC32 hash : 57D5960C
CRC32 hash (skip zero) : 800D86B7
AccurateRip v1 signature : FB13076F
AccurateRip v2 signature : 242DB7B3
->Track not present in AccurateRip database.
Statistics
Read error : 0
Jitter error (maybe fixed) : 0
Retry sector count : 0
Damaged sector count : 0
Track 18
Filename : /Users/andywilm/Desktop/Ethel Waters - Am I Blue? (1999) [FLAC]/18 A Hundred Years from Today.flac
Pre-gap length : 00:02:57
Track gain : -1.96 dB
Peak : 0.830322
CRC32 hash (test run) : F6EED995
CRC32 hash : F6EED995
CRC32 hash (skip zero) : 694157D9
AccurateRip v1 signature : D4344BFE
AccurateRip v2 signature : 4852ACB3
->Track not present in AccurateRip database.
Statistics
Read error : 0
Jitter error (maybe fixed) : 0
Retry sector count : 0
Damaged sector count : 0
Track 19
Filename : /Users/andywilm/Desktop/Ethel Waters - Am I Blue? (1999) [FLAC]/19 Miss Otis Regrets.flac
Pre-gap length : 00:02:57
Track gain : -1.27 dB
Peak : 1.000000
CRC32 hash (test run) : BDC6A8E3
CRC32 hash : BDC6A8E3
CRC32 hash (skip zero) : 8DDCE1B8
AccurateRip v1 signature : 4350DC0A
AccurateRip v2 signature : EC8BD231
->Track not present in AccurateRip database.
Statistics
Read error : 0
Jitter error (maybe fixed) : 0
Retry sector count : 0
Damaged sector count : 0
Track 20
Filename : /Users/andywilm/Desktop/Ethel Waters - Am I Blue? (1999) [FLAC]/20 Moonglow.flac
Pre-gap length : 00:02:58
Track gain : -2.37 dB
Peak : 0.695099
CRC32 hash (test run) : FD20BD1E
CRC32 hash : FD20BD1E
CRC32 hash (skip zero) : 6091A69D
AccurateRip v1 signature : 82D58D13
AccurateRip v2 signature : A3020F88
->Track not present in AccurateRip database.
Statistics
Read error : 0
Jitter error (maybe fixed) : 0
Retry sector count : 0
Damaged sector count : 0
Track 21
Filename : /Users/andywilm/Desktop/Ethel Waters - Am I Blue? (1999) [FLAC]/21 You're a Sweetheart.flac
Pre-gap length : 00:02:57
Track gain : -3.09 dB
Peak : 0.894592
CRC32 hash (test run) : DCB72BE0
CRC32 hash : DCB72BE0
CRC32 hash (skip zero) : E9F05087
AccurateRip v1 signature : C5BEF861
AccurateRip v2 signature : 4E2E472A
->Track not present in AccurateRip database.
Statistics
Read error : 0
Jitter error (maybe fixed) : 0
Retry sector count : 0
Damaged sector count : 0
Track 22
Filename : /Users/andywilm/Desktop/Ethel Waters - Am I Blue? (1999) [FLAC]/22 I'll Get Along Somehow.flac
Pre-gap length : 00:02:57
Track gain : -3.18 dB
Peak : 0.761688
CRC32 hash (test run) : AE804F79
CRC32 hash : AE804F79
CRC32 hash (skip zero) : 6A136EB5
AccurateRip v1 signature : DFEABB28
AccurateRip v2 signature : E3843726
->Track not present in AccurateRip database.
Statistics
Read error : 0
Jitter error (maybe fixed) : 0
Retry sector count : 0
Damaged sector count : 0
Track 23
Filename : /Users/andywilm/Desktop/Ethel Waters - Am I Blue? (1999) [FLAC]/23 Baby, What Else Can I Do?.flac
Pre-gap length : 00:02:58
Track gain : -1.17 dB
Peak : 0.751007
CRC32 hash (test run) : 04680453
CRC32 hash : 04680453
CRC32 hash (skip zero) : D1E15D8B
AccurateRip v1 signature : BBA5FBB2
AccurateRip v2 signature : D02A496B
->Track not present in AccurateRip database.
Statistics
Read error : 0
Jitter error (maybe fixed) : 0
Retry sector count : 0
Damaged sector count : 0
Track 24
Filename : /Users/andywilm/Desktop/Ethel Waters - Am I Blue? (1999) [FLAC]/24 Waitin' at the End of the Road.flac
Pre-gap length : 00:04:23
Track gain : -1.95 dB
Peak : 0.785767
CRC32 hash (test run) : 1AE6B351
CRC32 hash : 1AE6B351
CRC32 hash (skip zero) : 1866FBFB
AccurateRip v1 signature : 5C3CE848
AccurateRip v2 signature : E98652A0
->Track not present in AccurateRip database.
Statistics
Read error : 0
Jitter error (maybe fixed) : 0
Retry sector count : 0
Damaged sector count : 0
No errors occurred
End of status report
 
Содержание индексной карты (.CUE)
TITLE "Am I Blue?"
PERFORMER "Ethel Waters"
REM GENRE "Jazz"
REM DATE "1999"
REM DISCID 72116118
REM REPLAYGAIN_ALBUM_GAIN -3.78 dB
REM REPLAYGAIN_ALBUM_PEAK 1.000000
FILE "01 - Am I Blue.flac" WAVE
TRACK 01 AUDIO
TITLE "Am I Blue?"
REM REPLAYGAIN_TRACK_GAIN -2.66 dB
REM REPLAYGAIN_TRACK_PEAK 0.999969
INDEX 01 00:00:00
TRACK 02 AUDIO
TITLE "Sweet Georgia Brown"
REM REPLAYGAIN_TRACK_GAIN -5.99 dB
REM REPLAYGAIN_TRACK_PEAK 0.806061
INDEX 00 03:21:50
FILE "02 - Sweet Georgia Brown.flac" WAVE
INDEX 01 00:00:00
TRACK 03 AUDIO
TITLE "Dinah"
REM REPLAYGAIN_TRACK_GAIN -5.54 dB
REM REPLAYGAIN_TRACK_PEAK 0.920837
INDEX 00 03:09:13
FILE "03 - Dinah.flac" WAVE
INDEX 01 00:00:00
TRACK 04 AUDIO
TITLE "I'm Coming, Virgina"
REM REPLAYGAIN_TRACK_GAIN -3.29 dB
REM REPLAYGAIN_TRACK_PEAK 0.717865
INDEX 00 03:14:00
FILE "04 - I'm Coming, Virgina.flac" WAVE
INDEX 01 00:00:00
TRACK 05 AUDIO
TITLE "Birmingham Bertha"
REM REPLAYGAIN_TRACK_GAIN -0.68 dB
REM REPLAYGAIN_TRACK_PEAK 1.000000
INDEX 00 03:03:10
FILE "05 - Birmingham Bertha.flac" WAVE
INDEX 01 00:00:00
TRACK 06 AUDIO
TITLE "Second-Handed Man"
REM REPLAYGAIN_TRACK_GAIN -4.15 dB
REM REPLAYGAIN_TRACK_PEAK 0.927734
INDEX 00 02:57:15
FILE "06 - Second-Handed Man.flac" WAVE
INDEX 01 00:00:00
TRACK 07 AUDIO
TITLE "True Blue Lou"
REM REPLAYGAIN_TRACK_GAIN -2.07 dB
REM REPLAYGAIN_TRACK_PEAK 0.922333
INDEX 00 02:49:42
FILE "07 - True Blue Lou.flac" WAVE
INDEX 01 00:00:00
TRACK 08 AUDIO
TITLE "Shoo Shoo Boogie Boo"
REM REPLAYGAIN_TRACK_GAIN -3.36 dB
REM REPLAYGAIN_TRACK_PEAK 0.760254
INDEX 00 03:03:05
FILE "08 - Shoo Shoo Boogie Boo.flac" WAVE
INDEX 01 00:00:00
TRACK 09 AUDIO
TITLE "Trav'lin' All Alone"
REM REPLAYGAIN_TRACK_GAIN -3.46 dB
REM REPLAYGAIN_TRACK_PEAK 0.858521
INDEX 00 02:50:63
FILE "09 - Trav'lin' All Alone.flac" WAVE
INDEX 01 00:00:00
TRACK 10 AUDIO
TITLE "Long Lean Lanky Mama"
REM REPLAYGAIN_TRACK_GAIN -1.68 dB
REM REPLAYGAIN_TRACK_PEAK 0.617554
INDEX 00 03:00:55
FILE "10 - Long Lean Lanky Mama.flac" WAVE
INDEX 01 00:00:00
TRACK 11 AUDIO
TITLE "You Can't Stop Me from Loving You"
REM REPLAYGAIN_TRACK_GAIN -2.86 dB
REM REPLAYGAIN_TRACK_PEAK 0.896881
INDEX 00 02:51:13
FILE "11 - You Can't Stop Me from Loving You.flac" WAVE
INDEX 01 00:00:00
TRACK 12 AUDIO
TITLE "I Can't Give You Anything But Love, Baby"
REM REPLAYGAIN_TRACK_GAIN -5.74 dB
REM REPLAYGAIN_TRACK_PEAK 1.000000
INDEX 00 03:24:73
FILE "12 - I Can't Give You Anything But Love, Baby.flac" WAVE
INDEX 01 00:00:00
TRACK 13 AUDIO
TITLE "Stormy Weather"
REM REPLAYGAIN_TRACK_GAIN -2.78 dB
REM REPLAYGAIN_TRACK_PEAK 0.988495
INDEX 00 03:03:53
FILE "13 - Stormy Weather.flac" WAVE
INDEX 01 00:00:00
TRACK 14 AUDIO
TITLE "Don't Blame Me"
REM REPLAYGAIN_TRACK_GAIN -2.71 dB
REM REPLAYGAIN_TRACK_PEAK 0.923431
INDEX 00 03:08:65
FILE "14 - Don't Blame Me.flac" WAVE
INDEX 01 00:00:00
TRACK 15 AUDIO
TITLE "Shadows on the Swanee"
REM REPLAYGAIN_TRACK_GAIN -3.13 dB
REM REPLAYGAIN_TRACK_PEAK 0.900696
INDEX 00 03:10:60
FILE "15 - Shadows on the Swanee.flac" WAVE
INDEX 01 00:00:00
TRACK 16 AUDIO
TITLE "Heat Wave"
REM REPLAYGAIN_TRACK_GAIN -5.37 dB
REM REPLAYGAIN_TRACK_PEAK 1.000000
INDEX 00 02:56:48
FILE "16 - Heat Wave.flac" WAVE
INDEX 01 00:00:00
TRACK 17 AUDIO
TITLE "I Just Couldn't Take It, Baby"
REM REPLAYGAIN_TRACK_GAIN -3.31 dB
REM REPLAYGAIN_TRACK_PEAK 1.000000
INDEX 00 02:58:60
FILE "17 - I Just Couldn't Take It, Baby.flac" WAVE
INDEX 01 00:00:00
TRACK 18 AUDIO
TITLE "A Hundred Years from Today"
REM REPLAYGAIN_TRACK_GAIN -1.96 dB
REM REPLAYGAIN_TRACK_PEAK 0.830322
INDEX 00 03:02:50
FILE "18 - A Hundred Years from Today.flac" WAVE
INDEX 01 00:00:00
TRACK 19 AUDIO
TITLE "Miss Otis Regrets"
REM REPLAYGAIN_TRACK_GAIN -1.27 dB
REM REPLAYGAIN_TRACK_PEAK 1.000000
INDEX 00 02:54:23
FILE "19 - Miss Otis Regrets.flac" WAVE
INDEX 01 00:00:00
TRACK 20 AUDIO
TITLE "Moonglow"
REM REPLAYGAIN_TRACK_GAIN -2.37 dB
REM REPLAYGAIN_TRACK_PEAK 0.695099
INDEX 00 03:04:45
FILE "20 - Moonglow.flac" WAVE
INDEX 01 00:00:00
TRACK 21 AUDIO
TITLE "You're a Sweetheart"
REM REPLAYGAIN_TRACK_GAIN -3.09 dB
REM REPLAYGAIN_TRACK_PEAK 0.894592
INDEX 00 03:18:00
FILE "21 - You're a Sweetheart.flac" WAVE
INDEX 01 00:00:00
TRACK 22 AUDIO
TITLE "I'll Get Along Somehow"
REM REPLAYGAIN_TRACK_GAIN -3.18 dB
REM REPLAYGAIN_TRACK_PEAK 0.761688
INDEX 00 02:55:38
FILE "22 - I'll Get Along Somehow.flac" WAVE
INDEX 01 00:00:00
TRACK 23 AUDIO
TITLE "Baby, What Else Can I Do?"
REM REPLAYGAIN_TRACK_GAIN -1.17 dB
REM REPLAYGAIN_TRACK_PEAK 0.751007
INDEX 00 02:27:60
FILE "23 - Baby, What Else Can I Do.flac" WAVE
INDEX 01 00:00:00
TRACK 24 AUDIO
TITLE "Waitin' at the End of the Road"
REM REPLAYGAIN_TRACK_GAIN -1.95 dB
REM REPLAYGAIN_TRACK_PEAK 0.785767
INDEX 00 02:56:72
FILE "24 - Waitin' at the End of the Road.flac" WAVE
INDEX 01 00:00:00
 
Отчет CUETools
[CUETools log; Date: 14.09.2013 12:56:48; Version: 2.1.4]
[CTDB TOCID: sB4.dg1t21GuKebDuHlQC3Qd9Rc-] disk not present in database.
[AccurateRip ID: 00401bbb-045436bb-72116118] disk not present in database.
Track Peak [ CRC32 ] [W/O NULL]
-- 100,0 [C94A5201] [BAC6E367]
01 100,0 [F2CB80E4] [3BF78213]
02 80,6 [CB88D0C5] [75A96A0F]
03 92,0 [643CE528] [CAA49D77]
04 71,7 [4A2768C8] [1EF7CB22]
05 100,0 [1AD69F03] [B0B0078B]
06 92,7 [8BBB40C2] [326254F1]
07 92,2 [069418FB] [B356E95B]
08 76,0 [639E0A43] [85868E59]
09 85,8 [3A493FCE] [1B2D9F17]
10 61,7 [DBF859D9] [D3CD854F]
11 89,6 [423EA020] [B54D4385]
12 100,0 [96FB3298] [6E6AFE14]
13 98,8 [F1D0A906] [2AFD1589]
14 92,3 [7C1CCE79] [2761B3A0]
15 90,0 [2D00F757] [7A98F99C]
16 100,0 [3784974F] [C492EAE3]
17 100,0 [57D5960C] [800D86B7]
18 83,0 [F6EED995] [694157D9]
19 100,0 [BDC6A8E3] [8DDCE1B8]
20 69,5 [FD20BD1E] [6091A69D]
21 89,4 [DCB72BE0] [E9F05087]
22 76,1 [AE804F79] [6A136EB5]
23 75,1 [04680453] [D1E15D8B]
24 78,5 [1AE6B351] [1866FBFB]
 
Об альбоме (сборнике)
A nice introduction to the work of the legendary Miss Waters
Ethel Waters was the first true jazz singer, and arguably the most influential vocalist in the history of popular American music. Her only real rival for this latter title is Louis Armstrong, and it can be argued that while Armstrong was the greater musician, Waters melding of black and white singing styles was actually the more influential contribution to American jazz and popular singing. The advent of CD's has brought a very welcome re-release of some hitherto very hard to find Waters material. There are now several compilation CD's of Waters classic jazz/blues/popular music cuts available. Of these, "Am I Blue?" may be the best single compilation of the Waters oeuvre. The only real rival is the "Ethel Waters: 1925-1940" disc, and this disc presents a greater or at least more representative variety than that disc, though both are worth owning. The sides on this disc were recorded between 1925 and 1939. I am not sure how they were chosen, but they represent a nice cross-section of Waters up-tempo numbers and ballads, her hits and more obscure songs and her work with a number of different bands, including those of the Dorsey Brothers, Benny Goodman and Duke Ellington, as well as a couple of choice cuts with her long-time pianist Pearl Wright. The sound quality is good, and the hits are certainly present in abundance. Those unfamiliar with Waters' singing career may be surprised to learn that she introduced (and recorded what are still the finest versions of) "Dinah", "Sweet Georgia Brown", "Am I Blue?", "Stormy Weather", "Miss Otis Regrets", "Moonglow", "Don't Blame Me", "A Hundred Years From Today" and "Heatwave". Although all of these are marvelous, the incredible sophistication of "Miss Otis Regrets" (Waters must be the only singer who can capture the Cole Porter wit of this song and still make it sound affecting), the incredible emotion (compressed and never overstated) in "Stormy Weather" and the inventive little touches she adds to "swing" "Heatwave" are the highlights of these classics. There are also the delightful surprises - Waters' inimitable characterization of men talking about "True Blue Lou", her playful "You Can't Stop Me From Loving You", the moving "Trav'lin All Alone", the take command, bawdy "Long, Lean, Lanky Mama", the comedy of "Birmingham Bertha", and the touching confidence of "At the End of the Road". In all of the songs on this CD, it pays to listen carefully and hear how Waters plays with both the melody and rhythm of the song to sing a song "her way". When she started doing this in 1917, and on her first recordings in 1921, she was the only singer doing so, and in doing so, she changed the course of popular music in America. There are shortcomings to any single disc, of course. Among the many standards Waters introduced that are not included on this CD: "St. Louis Blues", "Taking A Chance On Love", "Happiness is a Thing Called Joe", "Cabin in the Sky", "There'll Be Some Changes Made", "Memories of You", "Sugar", "Hottentot Potentate", "Harlem on My Mind", and "Supper Time". Also missing are certain classic renditions of songs she didn't introduce, in particular her killer version of "I Got Rhythm" from 1934, a virtuoso example of early jazz singing, and some of her great blues sides, like "West End Blues". And like most compilation discs, this disc ignores all of her recordings done after 1940. There are still no CD's of her classic live performances in the 1950's (captured on the Monmouth-Evergreen album, "Miss Ethel Waters"), of her 40's, 50's and 60's recordings for small labels, of her television performances from the 50's, or of her three recordings of spirituals and hymns for Word records in the 50's, 60's and 70's. By the 50's, age had taken a great toll on her voice, but she nonetheless managed to find the heart of any song she sang and still make it very much hers. What is needed more than anything is a comprehensive box set (at least 4 CD's) that spans her entire glorious career. Until we get such a set, there are at least single disc compilations such as this one to serve as an introduction and the Classics series, which covers all her sides from 1921-1940, for which to be grateful.
-- by Reviewer123
Any questions - support@pro-jazz.com.
Есть вопросы - support@pro-jazz.com
10:58
283
Нет комментариев. Ваш будет первым!