Поиск

(Vocal Jazz / Standards / Traditional Pop) Rosemary Clooney - With Love - 1981, FLAC (image+.cue) lossless

Треклист:
Rosemary Clooney
With Love
Жанр: Vocal Jazz / Standards / Traditional Pop
Страна-производитель диска: USA
Год издания диска: 1981
Издатель (лейбл): Concord Jazz
Номер по каталогу: CCD-4144
Аудио кодек: FLAC (*.flac)
Тип рипа: image+.cue
Битрейт аудио: lossless
Продолжительность: 39:47
Источник (релизер): рип с родного диска
Наличие сканов в содержимом раздачи: да
Треклист:

01. Just The Way You Are 5:07
02. The Way We Were 5:00
03. Alone At Last 4:53
04. Come In From The Rain 4:49
05. Meditation 4:43
06. Hello Young Lovers 3:46
07. Just In Time 3:17
08. Tenderly 5:08
09. Will You Still Be Mine 3:04* * *
 
Лог создания рипа
Exact Audio Copy V0.99 prebeta 5 from 4. May 2009
Отчёт EAC об извлечении, выполненном 16. января 2011, 17:32
Rosemary Clooney / With Love
Дисковод: PIONEER DVD-RW DVR-217F Adapter: 0 ID: 1
Режим чтения : Достоверность
Использование точного потока : Да
Отключение кэша аудио : Да
Использование указателей C2 : Нет
Коррекция смещения при чтении : 96
Способность читать области Lead-in и Lead-out : Нет
Заполнение пропущенных сэмплов тишиной : Да
Удаление блоков с тишиной в начале и конце : Нет
При вычислениях CRC использовались нулевые сэмплы : Да
Интерфейс : Установленный внешний ASPI-интерфейс
Выходной формат : Пользовательский кодировщик
Выбранный битрейт : 128 kBit/s
Качество : Высокий
Добавление ID3-тэга : Нет
Утилита сжатия : C:\Program Files\FLAC\FLAC frontend.exe
Дополнительные параметры : -8 -V %s
TOC извлечённого CD
Трек | Старт | Длительность | Начальный сектор | Конечный сектор
---------------------------------------------------------------------
1 | 0:00.37 | 5:13.08 | 37 | 23519
2 | 5:13.45 | 5:05.40 | 23520 | 46434
3 | 10:19.10 | 4:57.50 | 46435 | 68759
4 | 15:16.60 | 4:55.05 | 68760 | 90889
5 | 20:11.65 | 4:48.12 | 90890 | 112501
6 | 25:00.02 | 3:51.28 | 112502 | 129854
7 | 28:51.30 | 3:21.45 | 129855 | 144974
8 | 32:13.00 | 5:12.17 | 144975 | 168391
9 | 37:25.17 | 3:06.30 | 168392 | 182371
Характеристики диапазона извлечения и сообщения об ошибках
Выбранный диапазон
Имя файла C:\Torrent\Rosemary Clooney - With Love\Rosemary Clooney - With Love.wav
Пиковый уровень 88.6 %
Качество диапазона 100.0 %
CRC теста EE555F05
CRC копии EE555F05
Копирование... OK
Ошибок не произошло
AccurateRip: сводка
Трек 1 точное извлечение (доверие 3) [76A79DEA]
Трек 2 точное извлечение (доверие 3) [D28E05AC]
Трек 3 точное извлечение (доверие 3) [8A20DFDF]
Трек 4 точное извлечение (доверие 3) [25A2374B]
Трек 5 точное извлечение (доверие 3) [C252AE59]
Трек 6 точное извлечение (доверие 3) [6D1D49F5]
Трек 7 точное извлечение (доверие 3) [7D6B6876]
Трек 8 точное извлечение (доверие 2) [021A12E8]
Трек 9 точное извлечение (доверие 3) [252BF02C]
Все треки извлечены точно
Конец отчёта
 
Состав
Rosemary Clooney: vocals
Scott Hamilton: tenor sax
Warren Vache: cornet and flugelhorn
Cal Collins: guitar
Nat Pierce: piano
Cal Tjader: vibes
Bob Maize: bass
Jake Hanna: drums
Rosemary Clooney - Sings Rodgers, Hart & Hammerstein
По всем вопросам пишите личное сообщение пользователю M0p94ok.
19:56
511
Нет комментариев. Ваш будет первым!