Поиск

(Vocal Jazz, Spoken Word) [CD] Arthur Prysock - This Is My Beloved - 1968, FLAC (tracks+.cue), lossless

(Vocal Jazz, Spoken Word) [CD] Arthur Prysock - This Is My Beloved - 1968, FLAC (tracks+.cue), lossless
Треклист:
Arthur Prysock - This Is My Beloved
Жанр: Vocal Jazz, Spoken Word
Носитель: CD
Страна-производитель диска: США
Год издания: 1992
Издатель (лейбл): Verve Records
Номер по каталогу: 827 012-2
Аудиокодек: FLAC (*.flac)
Тип рипа: tracks+.cue
Битрейт аудио: lossless
Продолжительность: 38:00
Источник (релизер): mmmoni (what)
Наличие сканов в содержимом раздачи: нет
Треклист:
01. I Need Your Love (2:22)
02. Your Eyes (3:29)
03. Your Words (2:11)
04. Your Body Makes Eyes at Me (4:07)
05. Come Love Me (2:46)
06. I Was Very Tired and Lonely (1:36)
07. You Did Not Come (4:06)
08. I Stood Long Where You Left Me (2:39)
09. Each Season, Every Year (4:49)
10. Eleven Years (2:59)
11. Remembering How We Could Be Warm Together (3:05)
12. Sleeping ... So Still, So Still (1:24)
13. I Shall Wish for You (2:27)
Composed by Mort Garson.
From the book by Walter Benton.
Recorded in Los Angeles, CA on December 16, 1968.
 
Лог создания рипа
Exact Audio Copy V1.0 beta 3 from 29. August 2011
EAC extraction logfile from 18. October 2012, 8:10
Arthur Prysock / This Is My Beloved
Used drive : hp CDDVDW TS-H653T Adapter: 0 ID: 1
Read mode : Secure
Utilize accurate stream : Yes
Defeat audio cache : Yes
Make use of C2 pointers : No
Read offset correction : 6
Overread into Lead-In and Lead-Out : No
Fill up missing offset samples with silence : Yes
Delete leading and trailing silent blocks : No
Null samples used in CRC calculations : Yes
Used interface : Native Win32 interface for Win NT & 2000
Gap handling : Appended to previous track
Used output format : User Defined Encoder
Selected bitrate : 896 kBit/s
Quality : High
Add ID3 tag : No
Command line compressor : C:\Program Files (x86)\Exact Audio Copy\FLAC\FLAC.EXE
Additional command line options : -8 -V -T "ARTIST=%artist%" -T "TITLE=%title%" -T "ALBUM=%albumtitle%" -T "DATE=%year%" -T "TRACKNUMBER=%tracknr%" -T "GENRE=%genre%" -T "PERFORMER=%albuminterpret%" -T "COMPOSER=%composer%" %haslyrics%--tag-from-file=LYRICS="%lyricsfile%"%haslyrics% -T "ALBUMARTIST=%albumartist%" -T "DISCNUMBER=%cdnumber%" -T "TOTALDISCS=%totalcds%" -T "TOTALTRACKS=%numtracks%" -T "COMMENT=%comment%" %source% -o %dest%
TOC of the extracted CD
Track | Start | Length | Start sector | End sector
---------------------------------------------------------
1 | 0:00.32 | 2:21.43 | 32 | 10649
2 | 2:22.00 | 3:28.40 | 10650 | 26289
3 | 5:50.40 | 2:10.42 | 26290 | 36081
4 | 8:01.07 | 4:06.40 | 36082 | 54571
5 | 12:07.47 | 2:45.43 | 54572 | 66989
6 | 14:53.15 | 1:35.70 | 66990 | 74184
7 | 16:29.10 | 4:05.52 | 74185 | 92611
8 | 20:34.62 | 2:38.50 | 92612 | 104511
9 | 23:13.37 | 4:49.33 | 104512 | 126219
10 | 28:02.70 | 2:59.37 | 126220 | 139681
11 | 31:02.32 | 3:04.68 | 139682 | 153549
12 | 34:07.25 | 1:23.60 | 153550 | 159834
13 | 35:31.10 | 2:26.55 | 159835 | 170839
Track 1
Filename C:\EAC Rips\Arthur Prysock - This is My Beloved [1969] (FLAC)\01 I Need Your Love.wav
Pre-gap length 0:00:02.42
Peak level 78.7 %
Extraction speed 1.9 X
Track quality 100.0 %
Test CRC 7A9B8EE5
Copy CRC 7A9B8EE5
Track not present in AccurateRip database
Copy OK
Track 2
Filename C:\EAC Rips\Arthur Prysock - This is My Beloved [1969] (FLAC)\02 Your Eyes.wav
Pre-gap length 0:00:02.84
Peak level 94.0 %
Extraction speed 2.1 X
Track quality 100.0 %
Test CRC DD30F4CC
Copy CRC DD30F4CC
Track not present in AccurateRip database
Copy OK
Track 3
Filename C:\EAC Rips\Arthur Prysock - This is My Beloved [1969] (FLAC)\03 Your Words.wav
Pre-gap length 0:00:02.84
Peak level 100.0 %
Extraction speed 1.9 X
Track quality 100.0 %
Test CRC 311A5775
Copy CRC 311A5775
Track not present in AccurateRip database
Copy OK
Track 4
Filename C:\EAC Rips\Arthur Prysock - This is My Beloved [1969] (FLAC)\04 Your Body Makes Eyes at Me.wav
Pre-gap length 0:00:03.26
Peak level 100.0 %
Extraction speed 2.1 X
Track quality 100.0 %
Test CRC 1509A338
Copy CRC 1509A338
Track not present in AccurateRip database
Copy OK
Track 5
Filename C:\EAC Rips\Arthur Prysock - This is My Beloved [1969] (FLAC)\05 Come Love Me.wav
Pre-gap length 0:00:03.26
Peak level 100.0 %
Extraction speed 2.0 X
Track quality 100.0 %
Test CRC 14EF4EAC
Copy CRC 14EF4EAC
Track not present in AccurateRip database
Copy OK
Track 6
Filename C:\EAC Rips\Arthur Prysock - This is My Beloved [1969] (FLAC)\06 I Was Very Tired and Lonely.wav
Pre-gap length 0:00:02.84
Peak level 74.0 %
Extraction speed 1.3 X
Track quality 99.8 %
Test CRC 429374D5
Copy CRC 429374D5
Track not present in AccurateRip database
Copy OK
Track 7
Filename C:\EAC Rips\Arthur Prysock - This is My Beloved [1969] (FLAC)\07 You Did Not Come.wav
Pre-gap length 0:00:00.84
Peak level 85.4 %
Extraction speed 1.9 X
Track quality 99.9 %
Test CRC 953CDB48
Copy CRC 953CDB48
Track not present in AccurateRip database
Copy OK
Track 8
Filename C:\EAC Rips\Arthur Prysock - This is My Beloved [1969] (FLAC)\08 I Stood Long Where You Left Me.wav
Pre-gap length 0:00:02.82
Peak level 77.2 %
Extraction speed 1.6 X
Track quality 99.9 %
Test CRC 88FBA2BF
Copy CRC 88FBA2BF
Track not present in AccurateRip database
Copy OK
Track 9
Filename C:\EAC Rips\Arthur Prysock - This is My Beloved [1969] (FLAC)\09 Each Season, Every Year.wav
Pre-gap length 0:00:00.82
Peak level 98.8 %
Extraction speed 2.1 X
Track quality 100.0 %
Test CRC 582A172F
Copy CRC 582A172F
Track not present in AccurateRip database
Copy OK
Track 10
Filename C:\EAC Rips\Arthur Prysock - This is My Beloved [1969] (FLAC)\10 Eleven Years.wav
Pre-gap length 0:00:01.84
Peak level 94.9 %
Extraction speed 2.0 X
Track quality 100.0 %
Test CRC 3B3913BF
Copy CRC 3B3913BF
Track not present in AccurateRip database
Copy OK
Track 11
Filename C:\EAC Rips\Arthur Prysock - This is My Beloved [1969] (FLAC)\11 Remembering How We Could Be Warm Together.wav
Pre-gap length 0:00:01.82
Peak level 100.0 %
Extraction speed 1.7 X
Track quality 99.9 %
Test CRC F21103FE
Copy CRC F21103FE
Track not present in AccurateRip database
Copy OK
Track 12
Filename C:\EAC Rips\Arthur Prysock - This is My Beloved [1969] (FLAC)\12 Sleeping ... So Still, So Still.wav
Pre-gap length 0:00:02.84
Peak level 80.6 %
Extraction speed 1.7 X
Track quality 100.0 %
Test CRC 3A5EBF22
Copy CRC 3A5EBF22
Track not present in AccurateRip database
Copy OK
Track 13
Filename C:\EAC Rips\Arthur Prysock - This is My Beloved [1969] (FLAC)\13 I Shall Wish for You.wav
Pre-gap length 0:00:02.84
Peak level 100.0 %
Extraction speed 1.6 X
Track quality 99.9 %
Test CRC 003B1F32
Copy CRC 003B1F32
Track not present in AccurateRip database
Copy OK
None of the tracks are present in the AccurateRip database
No errors occurred
End of status report
==== Log checksum 4200832C858218531D1BDF8D304646C539E56E97B6FD3C4A2FC67F059943C740 ====
 
Содержание индексной карты (.CUE)
REM GENRE Jazz
REM DATE 1968
REM DISCID BB08E50D
REM COMMENT "ExactAudioCopy v1.0b3"
PERFORMER "Arthur Prysock"
TITLE "This Is My Beloved"
FILE "01 - I Need Your Love.wav" WAVE
TRACK 01 AUDIO
TITLE "I Need Your Love"
PERFORMER "Arthur Prysock"
PREGAP 00:00:32
INDEX 01 00:00:00
TRACK 02 AUDIO
TITLE "Your Eyes"
PERFORMER "Arthur Prysock"
INDEX 00 02:18:55
FILE "02 - Your Eyes.wav" WAVE
INDEX 01 00:00:00
TRACK 03 AUDIO
TITLE "Your Words"
PERFORMER "Arthur Prysock"
INDEX 00 03:25:52
FILE "03 - Your Words.wav" WAVE
INDEX 01 00:00:00
TRACK 04 AUDIO
TITLE "Your Body Makes Eyes at Me"
PERFORMER "Arthur Prysock"
INDEX 00 02:07:22
FILE "04 - Your Body Makes Eyes at Me.wav" WAVE
INDEX 01 00:00:00
TRACK 05 AUDIO
TITLE "Come Love Me"
PERFORMER "Arthur Prysock"
INDEX 00 04:03:20
FILE "05 - Come Love Me.wav" WAVE
INDEX 01 00:00:00
TRACK 06 AUDIO
TITLE "I Was Very Tired and Lonely"
PERFORMER "Arthur Prysock"
INDEX 00 02:42:55
FILE "06 - I Was Very Tired and Lonely.wav" WAVE
INDEX 01 00:00:00
TRACK 07 AUDIO
TITLE "You Did Not Come"
PERFORMER "Arthur Prysock"
INDEX 00 01:35:07
FILE "07 - You Did Not Come.wav" WAVE
INDEX 01 00:00:00
TRACK 08 AUDIO
TITLE "I Stood Long Where You Left Me"
PERFORMER "Arthur Prysock"
INDEX 00 04:02:65
FILE "08 - I Stood Long Where You Left Me.wav" WAVE
INDEX 01 00:00:00
TRACK 09 AUDIO
TITLE "Each Season, Every Year"
PERFORMER "Arthur Prysock"
INDEX 00 02:37:63
FILE "09 - Each Season, Every Year.wav" WAVE
INDEX 01 00:00:00
TRACK 10 AUDIO
TITLE "Eleven Years"
PERFORMER "Arthur Prysock"
INDEX 00 04:47:45
FILE "10 - Eleven Years.wav" WAVE
INDEX 01 00:00:00
TRACK 11 AUDIO
TITLE "Remembering How We Could Be Warm Together"
PERFORMER "Arthur Prysock"
INDEX 00 02:57:50
FILE "11 - Remembering How We Could Be Warm Together.wav" WAVE
INDEX 01 00:00:00
TRACK 12 AUDIO
TITLE "Sleeping ... So Still, So Still"
PERFORMER "Arthur Prysock"
INDEX 00 03:02:05
FILE "12 - Sleeping ... So Still, So Still.wav" WAVE
INDEX 01 00:00:00
TRACK 13 AUDIO
TITLE "I Shall Wish for You"
PERFORMER "Arthur Prysock"
INDEX 00 01:20:72
FILE "13 - I Shall Wish for You.wav" WAVE
INDEX 01 00:00:00
 
Отчет CUETools
[CUETools log; Date: 04.06.2014 14:33:24; Version: 2.1.4]
Pregap length 00:00:32.
[CTDB TOCID: gZCdZkDjEtkBqrXMrzXUKFIQm3c-] disk not present in database.
[AccurateRip ID: 00128e34-00baa186-bb08e50d] found.
Track [ CRC | V2 ] Status
01 [757784da|46887248] (0+0/4) No match
02 [deda3fa1|870d2a0d] (0+0/4) No match
03 [edaaccc7|f74f7055] (0+0/4) No match
04 [76611eeb|ae0eef67] (0+0/4) No match
05 [e6fa50a7|1777c3d5] (0+0/4) No match
06 [e3dd2491|c9b8965a] (0+0/4) No match
07 [eb29a753|6e60dc81] (0+0/4) No match
08 [2b805140|934fdfc5] (0+0/4) No match
09 [f6773c25|59637d76] (0+0/4) No match
10 [4857f218|ccdd8c35] (0+0/4) No match
11 [172cc0db|a96608d9] (0+0/4) No match
12 [d1ba6ab1|514833fd] (0+0/4) No match
13 [c927dcb9|ada79dcf] (0+0/4) No match
Offsetted by 2678:
01 [3b7a2818] (1/4) Accurately ripped
02 [dc517573] (1/4) Accurately ripped
03 [09b3fc33] (1/4) Accurately ripped
04 [2177b00d] (1/4) Accurately ripped
05 [77c6c5a7] (1/4) Accurately ripped
06 [7ec1c1e7] (1/4) Accurately ripped
07 [f07fed5b] (1/4) Accurately ripped
08 [99be066a] (1/4) Accurately ripped
09 [bebfcd59] (1/4) Accurately ripped
10 [5f0e9b18] (1/4) Accurately ripped
11 [a535b217] (1/4) Accurately ripped
12 [768403a3] (1/4) Accurately ripped
13 [ed376784] (1/4) Accurately ripped
Track Peak [ CRC32 ] [W/O NULL] [ LOG ]
-- 100,0 [8CDE0F34] [E0D63229]
01 78,7 [7A9B8EE5] [7EAB21C7] CRC32
02 94,0 [DD30F4CC] [A9DDBC4E] CRC32
03 100,0 [311A5775] [2D0E8CF5] CRC32
04 100,0 [1509A338] [F92F5BA5] CRC32
05 100,0 [14EF4EAC] [6C4C44D5] CRC32
06 74,0 [429374D5] [6C02EABC] CRC32
07 85,4 [953CDB48] [67DFAC55] CRC32
08 77,2 [88FBA2BF] [DB0A459E] CRC32
09 98,8 [582A172F] [8AC15E01] CRC32
10 94,9 [3B3913BF] [21E98C70] CRC32
11 100,0 [F21103FE] [92C4C4FF] CRC32
12 80,6 [3A5EBF22] [B3140167] CRC32
13 100,0 [003B1F32] [0685B7CF] CRC32
 
Об альбоме (сборнике)
The first time I heard this was in the '60's at the University of Wisconsin and then in Chicago where the DJ (woman on "1000 on the dial") said "This is a turn on. You guys who don't know what to say to your lady, just put this on..." The book is good; the CD (now) is great. The best parts? When he recites "Your dress lies against the cheeks and hollows of your thighs like running water." and the sultry saxophone just pulls all the lust and love out of Walter's words right into your ears. And later Arthur says "But you did not come... and I left my glass empty...and went into the streets looking for you." I have never heard a sadder single instrument than the bow to bass on that sorrow.
Arthur Prysock (AP), who passed away (last year?), was to This Is My Beloved as James Cleveland was to "Amazing Grace" ,not Joan Baez. AP was to This Is My Beloved as Jimi Hendrix was to "The Star Spangled Banner" ,not Jim Nabors. AP was to This Is My Beloved as Albert King was to the blues, not Mick Jagger. The emotions (love, pain, lust, joy, loneliness) are marvelously woven into the music and words of Prysock and Benton in a way that if you know all those names above you will, and should, run out and get this CD right now. I have recommended this album/CD to every romantic I have ever known. If you to are a romantic, the words and music will linger with you forever.
-- By BassinOakland
This is truly a masterful piece of imagination of both poetry and music. The eleven year love affair that is formed, lived, broken and slowly forgotten ~ each season ~ every year is a testament of a man's love to a women who couldn't stay.
I heard this in 1995 when I first moved to Los Angeles. I have listened to this album religiously ever since and have been thankful every time.
An enthralling 'body' of work.
-- By Steffan Piper
Download available for power users only.
14:32
367
Нет комментариев. Ваш будет первым!