Вы используете незарегистрированную версию компонента "Вкладки"!

Поиск

(Vocal Jazz) Rosemary Clooney - Sentimental journey - 2001, APE (image+.cue), lossless

(Vocal Jazz) Rosemary Clooney - Sentimental journey - 2001, APE (image+.cue), lossless
Треклист:
Rosemary Clooney - Sentimental journey
Жанр: Vocal Jazz
Год выпуска диска: 2001
Производитель диска: USA
Аудио кодек: APE
Тип рипа: image+.cue
Битрейт аудио: lossless
Продолжительность: 58:28
Источник (релизер): Диск из личной коллекции
Трэклист:
1. "That Old Black Magic" (Harold Arlen, Johnny Mercer) – 3:33
2. "I'm Glad There Is You" (Jimmy Dorsey, Paul Mertz) – 3:59
3. "I've Got My Love to Keep Me Warm" (Irving Berlin) – 3:35
4. "You Go to My Head" (J. Fred Coots, Haven Gillespie) – 5:07
5. "And the Angels Sing" (Ziggy Elman, Mercer) – 3:08
6. "Happiness is a Thing Called Joe" (Harold Arlen, E.Y. "Yip" Harburg) – 4:47
7. "I'm the Big Band Singer" (Merv Griffin) – 2:29
8. "You Belong to Me" (Pee Wee King, Redd Stewart, Chilton Price) – 3:49
9. "I'll Be Around" (Alec Wilder) – 2:50
10. "I Gotta Right to Sing the Blues" (Arlen, Ted Koehler) – 3:51
11. "Ya Got Class" (Ray Evans, Jay Livingston) – 2:46
12. "Rockin' Chair" (Hoagy Carmichael) – 4:20
13. "The Singer" (Joe Cocuzzo, Vincent Falcone, Jr.) – 2:06
14. "They Can't Take That Away from Me" (George Gershwin, Ira Gershwin) – 3:55
15. "Sentimental Journey" (Les Brown, Ben Homer, Bud Green) – 4:06
16. Medley: "I Cried for You"/"Who's Sorry Now?"/"Goody Goody" (Gus Arnheim, Arthur Freed, Abe Lyman)/(Ted Snyder, Bert Kalmar, Harry Ruby)/(Mercer, Matty Malneck) – 3:57
 
Отчёт EAC
Exact Audio Copy V0.99 prebeta 5 from 4. May 2009
Отчёт EAC об извлечении, выполненном 23. октября 2009, 16:08
Rosemary Clooney and Big Kahuna / Sentimental Journey - The Girl Singer and her Big Band
Дисковод: TSSTcorpCDDVDW TS-L632N Adapter: 0 ID: 0
Режим чтения : Достоверность
Использование точного потока : Да
Отключение кэша аудио : Да
Использование указателей C2 : Нет
Коррекция смещения при чтении : 6
Способность читать области Lead-in и Lead-out : Нет
Заполнение пропущенных сэмплов тишиной : Да
Удаление блоков с тишиной в начале и конце : Нет
При вычислениях CRC использовались нулевые сэмплы : Да
Интерфейс : Установленный внешний ASPI-интерфейс
Выходной формат : Внутренние WAV-операции
Формат сэмплов : 44.100 Гц; 16 бит; стерео
TOC извлечённого CD
Трек | Старт | Длительность | Начальный сектор | Конечный сектор
---------------------------------------------------------------------
1 | 0:00.00 | 3:33.10 | 0 | 15984
2 | 3:33.10 | 3:59.55 | 15985 | 33964
3 | 7:32.65 | 3:35.72 | 33965 | 50161
4 | 11:08.62 | 5:07.58 | 50162 | 73244
5 | 16:16.45 | 3:08.65 | 73245 | 87409
6 | 19:25.35 | 4:47.57 | 87410 | 108991
7 | 24:13.17 | 2:29.48 | 108992 | 120214
8 | 26:42.65 | 3:49.70 | 120215 | 137459
9 | 30:32.60 | 2:50.72 | 137460 | 150281
10 | 33:23.57 | 3:51.58 | 150282 | 167664
11 | 37:15.40 | 2:46.40 | 167665 | 180154
12 | 40:02.05 | 4:20.42 | 180155 | 199696
13 | 44:22.47 | 2:06.33 | 199697 | 209179
14 | 46:29.05 | 3:55.00 | 209180 | 226804
15 | 50:24.05 | 4:06.37 | 226805 | 245291
16 | 54:30.42 | 3:57.45 | 245292 | 263111
Характеристики диапазона извлечения и сообщения об ошибках
Выбранный диапазон
Имя файла C:\Users\user\grush\Rosemary Clooney - Sentimental journey\Rosemary Clooney and Big Kahuna - Sentimental Journey - The Girl Singer and her Big Band.wav
Пиковый уровень 97.9 %
Качество диапазона 100.0 %
CRC копии AECA1706
Копирование... OK
Ошибок не произошло
Конец отчёта
Any questions - support@pro-jazz.com. Есть вопросы - support@pro-jazz.com
11:23
262
Нет комментариев. Ваш будет первым!