Вы используете незарегистрированную версию компонента "Вкладки"!

Поиск

(Vocal Jazz) Rosemary Clooney - Dedicated To Nelson Riddle {1956-1957} - 1996, FLAC (tracks+.cue), lossless

(Vocal Jazz) Rosemary Clooney - Dedicated To Nelson Riddle {1956-1957} - 1996, FLAC (tracks+.cue), lossless
Треклист:
•Rosemary Clooney - Dedicated To Nelson Riddle {1956-1957}•
Жанр: Vocal Jazz
Страна-производитель диска: Россия
Год издания: 1996
Издатель (лейбл): ООО "Галактис"
Аудиокодек: FLAC (*.flac)
Тип рипа: tracks+.cue
Битрейт аудио: lossless
Продолжительность: 00:51:45
Источник (релизер): Рип с диска.
Наличие сканов в содержимом раздачи: да
Треклист:
01. A Foggy Day [03:18]
02. We're in the Money [02:49]
03. It's So Peaceful in the Country [04:09]
04. Limehouse Blues [02:31]
05. Do You Know What It Means to Miss New Orleans [03:51]
06. I Got It Bad And That Ain't Good [03:18]
07. The Continental [03:12]
08. Mean to Me [03:42]
09. You're in Kentucky [02:55]
10. As Time Goes By [04:10]
11. Haven't Got a Worry [02:39]
12. Mangos [02:46]
13. At Sundown [02:27]
14. A Woman Likes to Be Told [03:54]
15. What Is This Thing Called Love [02:52]
16. Come Rain or Come Shine [03:05]
 
Лог создания рипа
Exact Audio Copy V1.0 beta 3 from 29. August 2011
Отчёт EAC об извлечении, выполненном 20. сентября 2012, 8:22
Rosemary Clooney / Dedicated to Nelson Riddle
Дисковод: Optiarc DVD RW AD-5200A Adapter: 0 ID: 0
Режим чтения : Достоверность
Использование точного потока : Да
Отключение кэша аудио : Да
Использование указателей C2 : Нет
Коррекция смещения при чтении : 48
Способность читать области Lead-in и Lead-out : Нет
Заполнение пропущенных сэмплов тишиной : Да
Удаление блоков с тишиной в начале и конце : Нет
При вычислениях CRC использовались нулевые сэмплы : Да
Интерфейс : Встроенный Win32-интерфейс для Win NT/2000
Обработка зазоров : Добавлено к предыдущему треку
Выходной формат : Пользовательский кодировщик
Выбранный битрейт : 128 kBit/s
Качество : Высокий
Добавление ID3-тега : Нет
Утилита сжатия : C:\Program Files\Exact Audio Copy\Flac\flac.exe
Дополнительные параметры : -V -8 -T "Genre=%genre%" -T "Artist=%artist%" -T "Title=%title%" -T "Album=%albumtitle%" -T "Date=%year%" -T "Tracknumber=%tracknr%" -T "Comment=%comment%" %source%
TOC извлечённого CD
Трек | Старт | Длительность | Начальный сектор | Конечный сектор
---------------------------------------------------------------------
1 | 0:00.00 | 3:18.47 | 0 | 14896
2 | 3:18.47 | 2:49.45 | 14897 | 27616
3 | 6:08.17 | 4:09.60 | 27617 | 46351
4 | 10:18.02 | 2:31.30 | 46352 | 57706
5 | 12:49.32 | 3:51.00 | 57707 | 75031
6 | 16:40.32 | 3:18.58 | 75032 | 89939
7 | 19:59.15 | 3:12.55 | 89940 | 104394
8 | 23:11.70 | 3:42.65 | 104395 | 121109
9 | 26:54.60 | 2:55.72 | 121110 | 134306
10 | 29:50.57 | 4:10.28 | 134307 | 153084
11 | 34:01.10 | 2:39.02 | 153085 | 165011
12 | 36:40.12 | 2:46.00 | 165012 | 177461
13 | 39:26.12 | 2:27.43 | 177462 | 188529
14 | 41:53.55 | 3:54.70 | 188530 | 206149
15 | 45:48.50 | 2:52.12 | 206150 | 219061
16 | 48:40.62 | 3:05.00 | 219062 | 232936
Трек 1
Имя файла F:\1996.Rosemary Clooney - Dedicated To Nelson Riddle\01. A Foggy Day.wav
Длина предзазора 0:00:02.00
Пиковый уровень 93.5 %
Скорость извлечения 2.1 X
Качество трека 100.0 %
CRC теста E079CC32
CRC копии E079CC32
Трек не обнаружен в базе AccurateRip
Копирование... OK
Трек 2
Имя файла F:\1996.Rosemary Clooney - Dedicated To Nelson Riddle\02. We're in the Money.wav
Длина предзазора 0:00:00.45
Пиковый уровень 94.3 %
Скорость извлечения 2.2 X
Качество трека 100.0 %
CRC теста 5BBD10A9
CRC копии 5BBD10A9
Трек не обнаружен в базе AccurateRip
Копирование... OK
Трек 3
Имя файла F:\1996.Rosemary Clooney - Dedicated To Nelson Riddle\03. It's So Peaceful in the Country.wav
Длина предзазора 0:00:01.27
Пиковый уровень 91.1 %
Скорость извлечения 2.6 X
Качество трека 100.0 %
CRC теста A4C72533
CRC копии A4C72533
Трек не обнаружен в базе AccurateRip
Копирование... OK
Трек 4
Имя файла F:\1996.Rosemary Clooney - Dedicated To Nelson Riddle\04. Limehouse Blues.wav
Длина предзазора 0:00:00.25
Пиковый уровень 92.3 %
Скорость извлечения 2.2 X
Качество трека 99.9 %
CRC теста 96731612
CRC копии 96731612
Трек не обнаружен в базе AccurateRip
Копирование... OK
Трек 5
Имя файла F:\1996.Rosemary Clooney - Dedicated To Nelson Riddle\05. Do You Know What It Means to Miss New Orleans.wav
Длина предзазора 0:00:01.00
Пиковый уровень 94.3 %
Скорость извлечения 2.9 X
Качество трека 100.0 %
CRC теста FE55436C
CRC копии FE55436C
Трек не обнаружен в базе AccurateRip
Копирование... OK
Трек 6
Имя файла F:\1996.Rosemary Clooney - Dedicated To Nelson Riddle\06. I Got It Bad And That Ain't Good.wav
Длина предзазора 0:00:00.30
Пиковый уровень 91.4 %
Скорость извлечения 3.0 X
Качество трека 100.0 %
CRC теста 6478B4CC
CRC копии 6478B4CC
Трек не обнаружен в базе AccurateRip
Копирование... OK
Трек 7
Имя файла F:\1996.Rosemary Clooney - Dedicated To Nelson Riddle\07. The Continental.wav
Длина предзазора 0:00:00.35
Пиковый уровень 93.3 %
Скорость извлечения 3.2 X
Качество трека 100.0 %
CRC теста DEEB1784
CRC копии DEEB1784
Трек не обнаружен в базе AccurateRip
Копирование... OK
Трек 8
Имя файла F:\1996.Rosemary Clooney - Dedicated To Nelson Riddle\08. Mean to Me.wav
Длина предзазора 0:00:00.20
Пиковый уровень 92.9 %
Скорость извлечения 3.3 X
Качество трека 100.0 %
CRC теста 04A5A032
CRC копии 04A5A032
Трек не обнаружен в базе AccurateRip
Копирование... OK
Трек 9
Имя файла F:\1996.Rosemary Clooney - Dedicated To Nelson Riddle\09. You're in Kentucky.wav
Длина предзазора 0:00:00.63
Пиковый уровень 92.4 %
Скорость извлечения 2.8 X
Качество трека 99.9 %
CRC теста 3C76AFF4
CRC копии 3C76AFF4
Трек не обнаружен в базе AccurateRip
Копирование... OK
Трек 10
Имя файла F:\1996.Rosemary Clooney - Dedicated To Nelson Riddle\10. As Time Goes By.wav
Длина предзазора 0:00:00.55
Пиковый уровень 92.1 %
Скорость извлечения 3.5 X
Качество трека 100.0 %
CRC теста D7BF60DF
CRC копии D7BF60DF
Трек не обнаружен в базе AccurateRip
Копирование... OK
Трек 11
Имя файла F:\1996.Rosemary Clooney - Dedicated To Nelson Riddle\11. Haven't Got a Worry.wav
Длина предзазора 0:00:00.40
Пиковый уровень 92.9 %
Скорость извлечения 2.8 X
Качество трека 99.9 %
CRC теста 8B5C4B46
CRC копии 8B5C4B46
Трек не обнаружен в базе AccurateRip
Копирование... OK
Трек 12
Имя файла F:\1996.Rosemary Clooney - Dedicated To Nelson Riddle\12. Mangos.wav
Длина предзазора 0:00:01.37
Пиковый уровень 92.8 %
Скорость извлечения 2.9 X
Качество трека 99.9 %
CRC теста DB7349C7
CRC копии DB7349C7
Трек не обнаружен в базе AccurateRip
Копирование... OK
Трек 13
Имя файла F:\1996.Rosemary Clooney - Dedicated To Nelson Riddle\13. At Sundown.wav
Длина предзазора 0:00:00.52
Пиковый уровень 92.2 %
Скорость извлечения 3.3 X
Качество трека 100.0 %
CRC теста DE64AF30
CRC копии DE64AF30
Трек не обнаружен в базе AccurateRip
Копирование... OK
Трек 14
Имя файла F:\1996.Rosemary Clooney - Dedicated To Nelson Riddle\14. A Woman Likes to Be Told.wav
Длина предзазора 0:00:01.55
Пиковый уровень 90.6 %
Скорость извлечения 3.5 X
Качество трека 100.0 %
CRC теста AC38F3B0
CRC копии AC38F3B0
Трек не обнаружен в базе AccurateRip
Копирование... OK
Трек 15
Имя файла F:\1996.Rosemary Clooney - Dedicated To Nelson Riddle\15. What Is This Thing Called Love.wav
Длина предзазора 0:00:01.18
Пиковый уровень 92.9 %
Скорость извлечения 3.4 X
Качество трека 100.0 %
CRC теста 23939A06
CRC копии 23939A06
Трек не обнаружен в базе AccurateRip
Копирование... OK
Трек 16
Имя файла F:\1996.Rosemary Clooney - Dedicated To Nelson Riddle\16. Come Rain or Come Shine.wav
Длина предзазора 0:00:00.22
Пиковый уровень 93.5 %
Скорость извлечения 3.5 X
Качество трека 100.0 %
CRC теста 37124695
CRC копии 37124695
Трек не обнаружен в базе AccurateRip
Копирование... OK
Ни одного трека нет в базе AccurateRip
Ошибок не произошло
Конец отчёта
==== Контрольная сумма отчёта 2CFA852E53835FCD16DF13E381ED0924D9FB834B4736A7727F171ED269B09947 ====
 
Содержание индексной карты (.CUE)
REM GENRE Jazz
REM DATE 1996
REM DISCID A90C2110
REM COMMENT "ExactAudioCopy v1.0b3"
PERFORMER "Rosemary Clooney"
TITLE " Dedicated to Nelson Riddle"
FILE "01. A Foggy Day.wav" WAVE
TRACK 01 AUDIO
TITLE "A Foggy Day"
PERFORMER "Rosemary Clooney"
INDEX 01 00:00:00
TRACK 02 AUDIO
TITLE "We're in the Money"
PERFORMER "Rosemary Clooney"
INDEX 00 03:18:02
FILE "02. We're in the Money.wav" WAVE
INDEX 01 00:00:00
TRACK 03 AUDIO
TITLE "It's So Peaceful in the Country"
PERFORMER "Rosemary Clooney"
INDEX 00 02:48:18
FILE "03. It's So Peaceful in the Country.wav" WAVE
INDEX 01 00:00:00
TRACK 04 AUDIO
TITLE " Limehouse Blues"
PERFORMER "Rosemary Clooney"
INDEX 00 04:09:35
FILE "04. Limehouse Blues.wav" WAVE
INDEX 01 00:00:00
TRACK 05 AUDIO
TITLE "Do You Know What It Means to Miss New Orleans"
PERFORMER "Rosemary Clooney"
INDEX 00 02:30:30
FILE "05. Do You Know What It Means to Miss New Orleans.wav" WAVE
INDEX 01 00:00:00
TRACK 06 AUDIO
TITLE "I Got It Bad And That Ain't Good"
PERFORMER "Rosemary Clooney"
INDEX 00 03:50:45
FILE "06. I Got It Bad And That Ain't Good.wav" WAVE
INDEX 01 00:00:00
TRACK 07 AUDIO
TITLE "The Continental"
PERFORMER "Rosemary Clooney"
INDEX 00 03:18:23
FILE "07. The Continental.wav" WAVE
INDEX 01 00:00:00
TRACK 08 AUDIO
TITLE "Mean to Me"
PERFORMER "Rosemary Clooney"
INDEX 00 03:12:35
FILE "08. Mean to Me.wav" WAVE
INDEX 01 00:00:00
TRACK 09 AUDIO
TITLE "You're in Kentucky"
PERFORMER "Rosemary Clooney"
INDEX 00 03:42:02
FILE "09. You're in Kentucky.wav" WAVE
INDEX 01 00:00:00
TRACK 10 AUDIO
TITLE "As Time Goes By"
PERFORMER "Rosemary Clooney"
INDEX 00 02:55:17
FILE "10. As Time Goes By.wav" WAVE
INDEX 01 00:00:00
TRACK 11 AUDIO
TITLE "Haven't Got a Worry"
PERFORMER "Rosemary Clooney"
INDEX 00 04:09:63
FILE "11. Haven't Got a Worry.wav" WAVE
INDEX 01 00:00:00
TRACK 12 AUDIO
TITLE "Mangos"
PERFORMER "Rosemary Clooney"
INDEX 00 02:37:40
FILE "12. Mangos.wav" WAVE
INDEX 01 00:00:00
TRACK 13 AUDIO
TITLE "At Sundown"
PERFORMER "Rosemary Clooney"
INDEX 00 02:45:23
FILE "13. At Sundown.wav" WAVE
INDEX 01 00:00:00
TRACK 14 AUDIO
TITLE "A Woman Likes to Be Told"
PERFORMER "Rosemary Clooney"
INDEX 00 02:25:63
FILE "14. A Woman Likes to Be Told.wav" WAVE
INDEX 01 00:00:00
TRACK 15 AUDIO
TITLE "What Is This Thing Called Love"
PERFORMER "Rosemary Clooney"
INDEX 00 03:53:52
FILE "15. What Is This Thing Called Love.wav" WAVE
INDEX 01 00:00:00
TRACK 16 AUDIO
TITLE "Come Rain or Come Shine"
PERFORMER "Rosemary Clooney"
INDEX 00 02:51:65
FILE "16. Come Rain or Come Shine.wav" WAVE
INDEX 01 00:00:00
Any questions - support@pro-jazz.com. Есть вопросы - support@pro-jazz.com
06:16
252
Нет комментариев. Ваш будет первым!