Поиск

(Vocal, Jazz-pop, Bossa) Ow Chutima - Love Tales {Audiophile} - 2011, FLAC (image+.cue), lossless

Треклист:
Ow Chutima - Love Tales {Audiophile} (Unique song & Excellent sound)
Жанр: Vocal, Jazz-pop, Bossa
Страна-производитель диска: Thai
Год издания: 2011
Издатель (лейбл): Baicha Song
Номер по каталогу: BSCD 15
Страна: Thai
Аудиокодек: FLAC (*.flac)
Тип рипа: image+.cue
Битрейт аудио: lossless
Продолжительность: 51:17
Источник (релизер): Owner Rip
Наличие сканов в содержимом раздачи: да
Треклист:
01. รักเอยอยู่ที่ไหน (Where 's love?) [0:04:26.69]
02. ของดี (Pride) [0:03:14.73]
03. สองดวงใจ (Two hearts as one) [0:04:04.56]
04. คนว้าเหว่ (Alone) [0:04:16.49]
05. ไม่อยากมาทะเล (Missing you) [0:03:59.30]
06. จากกันด้วยดี (Wishing you well) [0:04:51.58]
07. เธอ (My love) [0:04:04.35]
08. เพลงฝัน (In my dream) [0:04:12.04]
09. งานประจำ (Routine) [0:03:54.53]
10. เกิดเร็วไป (Crush on you) [0:03:20.49]
11. รักเธอเท่าเขา (Naturally Love) [0:04:15.14]
12. เธอ (My love) {violin's lila} [0:04:05.02]
13. คนว้าเหว่ (Alone {Again}) [0:02:30.07]
 
Лог создания рипа
Exact Audio Copy V1.0 beta 1 from 15. November 2010
EAC extraction logfile from 12. April 2012, 19:50
Ow Chutima / Love Tales
Used drive : PIONEER DVD-RW DVR-219L Adapter: 0 ID: 1
Read mode : Secure
Utilize accurate stream : Yes
Defeat audio cache : Yes
Make use of C2 pointers : No
Read offset correction : 6
Overread into Lead-In and Lead-Out : No
Fill up missing offset samples with silence : Yes
Delete leading and trailing silent blocks : No
Null samples used in CRC calculations : Yes
Used interface : Native Win32 interface for Win NT & 2000
Used output format : Internal WAV Routines
Sample format : 44.100 Hz; 16 Bit; Stereo
TOC of the extracted CD
Track | Start | Length | Start sector | End sector
---------------------------------------------------------
1 | 0:00.00 | 4:26.69 | 0 | 20018
2 | 4:26.69 | 3:14.73 | 20019 | 34641
3 | 7:41.67 | 4:04.56 | 34642 | 52997
4 | 11:46.48 | 4:16.49 | 52998 | 72246
5 | 16:03.22 | 3:59.30 | 72247 | 90201
6 | 20:02.52 | 4:51.58 | 90202 | 112084
7 | 24:54.35 | 4:04.35 | 112085 | 130419
8 | 28:58.70 | 4:12.04 | 130420 | 149323
9 | 33:10.74 | 3:54.53 | 149324 | 166926
10 | 37:05.52 | 3:20.49 | 166927 | 181975
11 | 40:26.26 | 4:15.14 | 181976 | 201114
12 | 44:41.40 | 4:05.02 | 201115 | 219491
13 | 48:46.42 | 2:30.07 | 219492 | 230748
Range status and errors
Selected range
Filename D:\YES ! We Speak Lossless @ ThailandTorrent\Ow Chutima - Love Tales.wav
Peak level 100.0 %
Extraction speed 0.0 X
Range quality 100.0 %
Test CRC 4A60D89E
Copy CRC 4A60D89E
Copy OK
No errors occurred
AccurateRip summary
Track 1 not present in database
Track 2 not present in database
Track 3 not present in database
Track 4 not present in database
Track 5 not present in database
Track 6 not present in database
Track 7 not present in database
Track 8 not present in database
Track 9 not present in database
Track 10 not present in database
Track 11 not present in database
Track 12 not present in database
Track 13 not present in database
None of the tracks are present in the AccurateRip database
End of status report
==== Log checksum 3BCA02CA5DD98A90DFF872440440F6C22B97F345C3E699C200CB9B4EFA0E89B8 ====
 
Содержание индексной карты (.CUE)
REM GENRE Vocal
REM DATE 2011
REM DISCID C30C040D
REM COMMENT "ExactAudioCopy v1.0b1"
PERFORMER "Ow Chutima"
TITLE "Love Tales"
FILE "Ow Chutima - Love Tales.flac" WAVE
TRACK 01 AUDIO
TITLE "Where 's love?"
PERFORMER "Ow Chutima"
FLAGS DCP
INDEX 01 00:00:00
TRACK 02 AUDIO
TITLE "Pride"
PERFORMER "Ow Chutima"
FLAGS DCP
INDEX 00 04:24:69
INDEX 01 04:26:69
TRACK 03 AUDIO
TITLE "Two hearts as one"
PERFORMER "Ow Chutima"
FLAGS DCP
INDEX 00 07:39:67
INDEX 01 07:41:67
TRACK 04 AUDIO
TITLE "Alone"
PERFORMER "Ow Chutima"
FLAGS DCP
INDEX 00 11:44:48
INDEX 01 11:46:48
TRACK 05 AUDIO
TITLE "Missing you"
PERFORMER "Ow Chutima"
FLAGS DCP
INDEX 00 16:01:22
INDEX 01 16:03:22
TRACK 06 AUDIO
TITLE "Wishing you well"
PERFORMER "Ow Chutima"
FLAGS DCP
INDEX 00 20:00:52
INDEX 01 20:02:52
TRACK 07 AUDIO
TITLE "My love"
PERFORMER "Ow Chutima"
FLAGS DCP
INDEX 00 24:52:35
INDEX 01 24:54:35
TRACK 08 AUDIO
TITLE "In my dream"
PERFORMER "Ow Chutima"
FLAGS DCP
INDEX 00 28:56:70
INDEX 01 28:58:70
TRACK 09 AUDIO
TITLE "Routine"
PERFORMER "Ow Chutima"
FLAGS DCP
INDEX 00 33:08:74
INDEX 01 33:10:74
TRACK 10 AUDIO
TITLE "Crush on you"
PERFORMER "Ow Chutima"
FLAGS DCP
INDEX 00 37:03:52
INDEX 01 37:05:52
TRACK 11 AUDIO
TITLE "Naturally Love"
PERFORMER "Ow Chutima"
FLAGS DCP
INDEX 00 40:24:26
INDEX 01 40:26:26
TRACK 12 AUDIO
TITLE "My love (Violin's leela)"
PERFORMER "Ow Chutima"
FLAGS DCP
INDEX 00 44:39:40
INDEX 01 44:41:40
TRACK 13 AUDIO
TITLE "Alone (Again)"
PERFORMER "Ow Chutima"
FLAGS DCP
INDEX 00 48:44:42
INDEX 01 48:46:42
02:36
317
Нет комментариев. Ваш будет первым!