Поиск

(Vocal, Jazz-pop, Bossa) Japanese Canary & Sapli - Japanese Bossa {HDCD} - 2012, FLAC (image+.cue), lossless

(Vocal, Jazz-pop, Bossa) Japanese Canary & Sapli - Japanese Bossa {HDCD} - 2012, FLAC (image+.cue), lossless
Треклист:
Japanese Canary & Sapli - Japanese Bossa {HDCD}
Жанр: Vocal, Jazz-pop, Bossa
Страна-производитель диска: Singapore
Год издания: 2012
Издатель (лейбл): Platinum Records
Номер по каталогу: PRS0054
Аудиокодек: FLAC (*.flac)
Тип рипа: image+.cue
Битрейт аудио: lossless
Продолжительность: CD1 - 61:41, CD2 - 66:39
Источник (релизер): Owner Rip
Наличие сканов в содержимом раздачи: да
 
Треклист
 
CD1
01. Bad Day    [0:03:59.66]
02. This Love [0:03:35.48]
03. You're Beautiful [0:03:22.35]
04. Celebration [0:05:02.32]
05. Material Girl [0:03:41.17]
06. La Plus Belle Pour Aller Danser [0:02:47.63]
07. Isn't She Lovely [0:03:55.08]
08. Cherish [0:04:48.65]
09. Don't Know Why [0:03:19.44]
10. Ai No Corrida [0:04:20.66]
11. That's The Way A Woman Is [0:02:38.23]
12. Life [0:03:51.29]
13. Just Can't Get Enough [0:04:12.49]
14. Can't Give You Anything [0:04:23.31]
15. Message En Rouge [0:04:02.56]
16. There's A Kind of Hush [0:03:38.43]
 
CD2
http://i52.fastpic.ru/big/2013/0106/62/cdaae8d496f315bf5358a4300d943362.jpg
01. Kiss Me    [0:04:17.54]
02. Lovefool [0:03:34.38]
03. Raindrops Keep Falling On My Head [0:02:53.07]
04. Can't Smile Without You [0:03:04.67]
05. Just The Way You Are [0:04:50.33]
06. Stars [0:05:23.19]
07. With or Without You [0:04:29.40]
08. Shape of My Heart [0:04:18.37]
09. We're All Gone [0:03:31.45]
10. (They Long To Be) Close To You [0:04:42.05]
11. Girlfriend [0:03:47.69]
12. Have You Never Been Mellow [0:04:25.53]
13. Man On The Moon [0:04:02.50]
14. Danceing Queen [0:05:11.40]
15. Lovein' You [0:04:18.68]
16. 1234 [0:03:46.13]
 
Лог создания рипа
 
CD1
Exact Audio Copy V1.0 beta 1 from 15. November 2010
EAC extraction logfile from 21. November 2012, 5:37
Japanese Canary & Sapli / Japanese Bossa (CD1)
Used drive : PIONEER DVD-RW DVR-118L Adapter: 4 ID: 0
Read mode : Secure
Utilize accurate stream : Yes
Defeat audio cache : Yes
Make use of C2 pointers : No
Read offset correction : 6
Overread into Lead-In and Lead-Out : No
Fill up missing offset samples with silence : Yes
Delete leading and trailing silent blocks : No
Null samples used in CRC calculations : Yes
Used interface : Native Win32 interface for Win NT & 2000
Used output format : Internal WAV Routines
Sample format : 44.100 Hz; 16 Bit; Stereo
TOC of the extracted CD
Track | Start | Length | Start sector | End sector
---------------------------------------------------------
1 | 0:00.00 | 3:59.66 | 0 | 17990
2 | 3:59.66 | 3:35.48 | 17991 | 34163
3 | 7:35.39 | 3:22.35 | 34164 | 49348
4 | 10:57.74 | 5:02.32 | 49349 | 72030
5 | 16:00.31 | 3:41.17 | 72031 | 88622
6 | 19:41.48 | 2:47.63 | 88623 | 101210
7 | 22:29.36 | 3:55.08 | 101211 | 118843
8 | 26:24.44 | 4:48.65 | 118844 | 140508
9 | 31:13.34 | 3:19.44 | 140509 | 155477
10 | 34:33.03 | 4:20.66 | 155478 | 175043
11 | 38:53.69 | 2:38.23 | 175044 | 186916
12 | 41:32.17 | 3:51.29 | 186917 | 204270
13 | 45:23.46 | 4:12.49 | 204271 | 223219
14 | 49:36.20 | 4:23.31 | 223220 | 242975
15 | 53:59.51 | 4:02.56 | 242976 | 261181
16 | 58:02.32 | 3:38.43 | 261182 | 277574
Range status and errors
Selected range
Filename F:\YES ! We Speak Lossless @ ThailandTorrent\Japanese Canary & Sapli - Japanese Bossa (CD1).wav
Peak level 100.0 %
Extraction speed 0.1 X
Range quality 100.0 %
Test CRC B0447560
Copy CRC B0447560
Copy OK
No errors occurred
AccurateRip summary
Track 1 not present in database
Track 2 not present in database
Track 3 not present in database
Track 4 not present in database
Track 5 not present in database
Track 6 not present in database
Track 7 not present in database
Track 8 not present in database
Track 9 not present in database
Track 10 not present in database
Track 11 not present in database
Track 12 not present in database
Track 13 not present in database
Track 14 not present in database
Track 15 not present in database
Track 16 not present in database
None of the tracks are present in the AccurateRip database
End of status report
==== Log checksum C9EFFEE5C95C8BB0D4DC9869D6A289F90363AC15A1D6A03C2B7F3B195AF752BD ====
 
CD2
Exact Audio Copy V1.0 beta 1 from 15. November 2010
EAC extraction logfile from 21. November 2012, 8:07
Japanese Canary & Sapli / Japanese Bossa (CD2)
Used drive : PIONEER DVD-RW DVR-118L Adapter: 4 ID: 0
Read mode : Secure
Utilize accurate stream : Yes
Defeat audio cache : Yes
Make use of C2 pointers : No
Read offset correction : 6
Overread into Lead-In and Lead-Out : No
Fill up missing offset samples with silence : Yes
Delete leading and trailing silent blocks : No
Null samples used in CRC calculations : Yes
Used interface : Native Win32 interface for Win NT & 2000
Used output format : Internal WAV Routines
Sample format : 44.100 Hz; 16 Bit; Stereo
TOC of the extracted CD
Track | Start | Length | Start sector | End sector
---------------------------------------------------------
1 | 0:00.00 | 4:17.54 | 0 | 19328
2 | 4:17.54 | 3:34.38 | 19329 | 35416
3 | 7:52.17 | 2:53.07 | 35417 | 48398
4 | 10:45.24 | 3:04.67 | 48399 | 62265
5 | 13:50.16 | 4:50.33 | 62266 | 84048
6 | 18:40.49 | 5:23.19 | 84049 | 108292
7 | 24:03.68 | 4:29.40 | 108293 | 128507
8 | 28:33.33 | 4:18.37 | 128508 | 147894
9 | 32:51.70 | 3:31.45 | 147895 | 163764
10 | 36:23.40 | 4:42.05 | 163765 | 184919
11 | 41:05.45 | 3:47.69 | 184920 | 202013
12 | 44:53.39 | 4:25.53 | 202014 | 221941
13 | 49:19.17 | 4:02.50 | 221942 | 240141
14 | 53:21.67 | 5:11.40 | 240142 | 263506
15 | 58:33.32 | 4:18.68 | 263507 | 282924
16 | 62:52.25 | 3:46.13 | 282925 | 299887
Range status and errors
Selected range
Filename F:\YES ! We Speak Lossless @ ThailandTorrent\Japanese Canary & Sapli - Japanese Bossa (CD2).wav
Peak level 100.0 %
Extraction speed 0.1 X
Range quality 100.0 %
Test CRC 0B8B987D
Copy CRC 0B8B987D
Copy OK
No errors occurred
AccurateRip summary
Track 1 not present in database
Track 2 not present in database
Track 3 not present in database
Track 4 not present in database
Track 5 not present in database
Track 6 not present in database
Track 7 not present in database
Track 8 not present in database
Track 9 not present in database
Track 10 not present in database
Track 11 not present in database
Track 12 not present in database
Track 13 not present in database
Track 14 not present in database
Track 15 not present in database
Track 16 not present in database
None of the tracks are present in the AccurateRip database
End of status report
==== Log checksum 9C8DB42E0F3563973D23422507FF7716A3BAAF2E919426DFC0B1ABAA24FD469F ====
 
Содержание индексной карты (.CUE)
 
CD1
REM GENRE Vocal
REM DATE 2012
REM DISCID F30E7510
REM COMMENT "ExactAudioCopy v1.0b1"
PERFORMER "Japanese Canary & Sapli"
TITLE "Japanese Bossa (CD1)"
FILE "Japanese Canary & Sapli - Japanese Bossa (CD1).flac" WAVE
TRACK 01 AUDIO
TITLE "Bad Day"
PERFORMER "Japanese Canary & Sapli"
INDEX 01 00:00:00
TRACK 02 AUDIO
TITLE "This Love"
PERFORMER "Japanese Canary & Sapli"
INDEX 01 03:59:66
TRACK 03 AUDIO
TITLE "You're Beautiful"
PERFORMER "Japanese Canary & Sapli"
INDEX 01 07:35:39
TRACK 04 AUDIO
TITLE "Celebration"
PERFORMER "Japanese Canary & Sapli"
INDEX 01 10:57:74
TRACK 05 AUDIO
TITLE "Material Girl"
PERFORMER "Japanese Canary & Sapli"
INDEX 01 16:00:31
TRACK 06 AUDIO
TITLE "La Plus Belle Pour Aller Danser"
PERFORMER "Japanese Canary & Sapli"
INDEX 01 19:41:48
TRACK 07 AUDIO
TITLE "Isn't She Lovely"
PERFORMER "Japanese Canary & Sapli"
INDEX 01 22:29:36
TRACK 08 AUDIO
TITLE "Cherish"
PERFORMER "Japanese Canary & Sapli"
INDEX 01 26:24:44
TRACK 09 AUDIO
TITLE "Don't Know Why"
PERFORMER "Japanese Canary & Sapli"
INDEX 01 31:13:34
TRACK 10 AUDIO
TITLE "Ai No Corrida"
PERFORMER "Japanese Canary & Sapli"
INDEX 01 34:33:03
TRACK 11 AUDIO
TITLE "That's The Way A Woman Is"
PERFORMER "Japanese Canary & Sapli"
INDEX 01 38:53:69
TRACK 12 AUDIO
TITLE "Life"
PERFORMER "Japanese Canary & Sapli"
INDEX 01 41:32:17
TRACK 13 AUDIO
TITLE "Just Can't Get Enough"
PERFORMER "Japanese Canary & Sapli"
INDEX 01 45:23:46
TRACK 14 AUDIO
TITLE "Can't Give You Anything"
PERFORMER "Japanese Canary & Sapli"
INDEX 01 49:36:20
TRACK 15 AUDIO
TITLE "Message En Rouge"
PERFORMER "Japanese Canary & Sapli"
INDEX 01 53:59:51
TRACK 16 AUDIO
TITLE "There's A Kind of Hush"
PERFORMER "Japanese Canary & Sapli"
INDEX 01 58:02:32
 
CD2
REM GENRE Vocal
REM DATE 2012
REM DISCID EB0F9E10
REM COMMENT "ExactAudioCopy v1.0b1"
PERFORMER "Japanese Canary & Sapli"
TITLE "Japanese Bossa (CD2)"
FILE "Japanese Canary & Sapli - Japanese Bossa (CD2).flac" WAVE
TRACK 01 AUDIO
TITLE "Kiss Me"
PERFORMER "Japanese Canary & Sapli"
INDEX 01 00:00:00
TRACK 02 AUDIO
TITLE "Lovefool"
PERFORMER "Japanese Canary & Sapli"
INDEX 01 04:17:54
TRACK 03 AUDIO
TITLE "Raindrops Keep Falling On My Head"
PERFORMER "Japanese Canary & Sapli"
INDEX 01 07:52:17
TRACK 04 AUDIO
TITLE "Can't Smile Without You"
PERFORMER "Japanese Canary & Sapli"
INDEX 01 10:45:24
TRACK 05 AUDIO
TITLE "Just The Way You Are"
PERFORMER "Japanese Canary & Sapli"
INDEX 01 13:50:16
TRACK 06 AUDIO
TITLE "Stars"
PERFORMER "Japanese Canary & Sapli"
INDEX 01 18:40:49
TRACK 07 AUDIO
TITLE "With or Without You"
PERFORMER "Japanese Canary & Sapli"
INDEX 01 24:03:68
TRACK 08 AUDIO
TITLE "Shape of My Heart"
PERFORMER "Japanese Canary & Sapli"
INDEX 01 28:33:33
TRACK 09 AUDIO
TITLE "We're All Gone"
PERFORMER "Japanese Canary & Sapli"
INDEX 01 32:51:70
TRACK 10 AUDIO
TITLE "(They Long To Be) Close To You"
PERFORMER "Japanese Canary & Sapli"
INDEX 01 36:23:40
TRACK 11 AUDIO
TITLE "Girlfriend"
PERFORMER "Japanese Canary & Sapli"
INDEX 01 41:05:45
TRACK 12 AUDIO
TITLE "Have You Never Been Mellow"
PERFORMER "Japanese Canary & Sapli"
INDEX 01 44:53:39
TRACK 13 AUDIO
TITLE "Man On The Moon"
PERFORMER "Japanese Canary & Sapli"
INDEX 01 49:19:17
TRACK 14 AUDIO
TITLE "Danceing Queen"
PERFORMER "Japanese Canary & Sapli"
INDEX 01 53:21:67
TRACK 15 AUDIO
TITLE "Lovein' You"
PERFORMER "Japanese Canary & Sapli"
INDEX 01 58:33:32
TRACK 16 AUDIO
TITLE "1234"
PERFORMER "Japanese Canary & Sapli"
INDEX 01 62:52:25

08:44
473
Нет комментариев. Ваш будет первым!