Вы используете незарегистрированную версию компонента "Вкладки"!

Поиск

(Vocal Jazz) Musica Nuda (Petra Magoni & Ferruccio Spinetti) - Дискография, 6 изданий (2004-2011), lossless

(Vocal Jazz) Musica Nuda (Petra Magoni & Ferruccio Spinetti) - Дискография, 6 изданий (2004-2011), lossless
Треклист:
Musica Nuda - Дискография (2004-2011)
Неважно, сколько у вас инструментов, если вы владеете ими в совершенстве..

.
Жанр: Vocal Jazz
Общая продолжительность: 5:47:38
Состав:
Petra Magoni — вокал
Ferruccio Spinetti — контрабасс
Официальный сайт
Официальный сайт Magoni
Официальный сайт Spinetti
Last.fm . . . . . . . . . MySpace
Страничка на сайте издателя
Дискография в mp3 на rutracker.org
.
 
2004 - Musica Nuda
Год выпуска: 2004
Лейбл, каталожный номер: Edel, 0171232RAF
Аудио кодек: FLAC
Тип рипа: tracks+.cue
Продолжительность: 0:50:34
Источник: другой трекер, сканы в комплекте, раздача осуществляется с любезного согласия оригинального релизера. Thanks to pieropicco!
Трэклист:
01. Eleanor Rigby (2:32)
02. Roxanne (3:18)
03. Prendila cosi (4:20)
04. Run with me (3:56)
05. I will survive (3:50)
06. Guarda che luna (2:30)
07. Maledetto sia l'aspetto (0:58)
08. Blackbird (1:56)
09. Sacrifice (3:38)
10. How Intro - How Insensitive (2:36)
11. Voglio di vita uscir (1:51)
12. Raindrops keep falling on my head (3:00)
13. Nessuno (1:38)
14. Nature boy (6:07)
15. Imagine (8:24)
 
EAC log
Exact Audio Copy V0.99 prebeta 4 from 23. January 2008
EAC extraction logfile from 22. January 2010, 15:58
Petra Magoni - Ferruccio Spinetti / Musica Nuda
Used drive : HL-DT-STDVD-ROM GDR8161B Adapter: 0 ID: 1
Read mode : Secure
Utilize accurate stream : Yes
Defeat audio cache : Yes
Make use of C2 pointers : No
Read offset correction : 102
Overread into Lead-In and Lead-Out : No
Fill up missing offset samples with silence : Yes
Delete leading and trailing silent blocks : No
Null samples used in CRC calculations : Yes
Used interface : Native Win32 interface for Win NT & 2000
Gap handling : Appended to previous track
Used output format : User Defined Encoder
Selected bitrate : 768 kBit/s
Quality : High
Add ID3 tag : No
Command line compressor : C:\Program Files\Exact Audio Copy\FLAC\FLAC.EXE
Additional command line options : -8 -V -T "ARTIST=%a" -T "TITLE=%t" -T "ALBUM=%g" -T "DATE=%y" -T "TRACKNUMBER=%n" -T "GENRE=%m" -T "COMMENT=EAC FLAC -8" %s
TOC of the extracted CD
Track | Start | Length | Start sector | End sector
---------------------------------------------------------
1 | 0:00.00 | 2:32.36 | 0 | 11435
2 | 2:32.36 | 3:18.04 | 11436 | 26289
3 | 5:50.40 | 4:19.72 | 26290 | 45786
4 | 10:10.37 | 3:55.74 | 45787 | 63485
5 | 14:06.36 | 3:50.13 | 63486 | 80748
6 | 17:56.49 | 2:29.68 | 80749 | 91991
7 | 20:26.42 | 0:57.74 | 91992 | 96340
8 | 21:24.41 | 1:56.06 | 96341 | 105046
9 | 23:20.47 | 3:38.24 | 105047 | 121420
10 | 26:58.71 | 2:36.11 | 121421 | 133131
11 | 29:35.07 | 1:50.39 | 133132 | 141420
12 | 31:25.46 | 3:00.25 | 141421 | 154945
13 | 34:25.71 | 1:37.39 | 154946 | 162259
14 | 36:03.35 | 6:06.47 | 162260 | 189756
15 | 42:10.07 | 8:23.73 | 189757 | 227554
Track 1
Filename D:\STemp\Petra Magoni & Ferruccio Spinetti - Musica Nuda\01 - Eleanor Rigby.wav
Pre-gap length 0:00:02.00
Peak level 78.2 %
Track quality 100.0 %
Test CRC 15364C44
Copy CRC 15364C44
Accurately ripped (confidence 2) [F912C685]
Copy OK
Track 2
Filename D:\STemp\Petra Magoni & Ferruccio Spinetti - Musica Nuda\02 - Roxanne.wav
Pre-gap length 0:00:02.00
Peak level 93.3 %
Track quality 100.0 %
Test CRC DF9C0495
Copy CRC DF9C0495
Accurately ripped (confidence 2) [DE9CE634]
Copy OK
Track 3
Filename D:\STemp\Petra Magoni & Ferruccio Spinetti - Musica Nuda\03 - Prendila cosi'.wav
Pre-gap length 0:00:02.00
Peak level 94.7 %
Track quality 100.0 %
Test CRC 77FC3960
Copy CRC 77FC3960
Accurately ripped (confidence 2) [DD2932EA]
Copy OK
Track 4
Filename D:\STemp\Petra Magoni & Ferruccio Spinetti - Musica Nuda\04 - Run with me.wav
Pre-gap length 0:00:02.00
Peak level 84.4 %
Track quality 100.0 %
Test CRC 3D371A84
Copy CRC 3D371A84
Accurately ripped (confidence 2) [5EC015AB]
Copy OK
Track 5
Filename D:\STemp\Petra Magoni & Ferruccio Spinetti - Musica Nuda\05 - I will survive.wav
Pre-gap length 0:00:02.00
Peak level 91.7 %
Track quality 100.0 %
Test CRC D5EB24A5
Copy CRC D5EB24A5
Accurately ripped (confidence 2) [4830A860]
Copy OK
Track 6
Filename D:\STemp\Petra Magoni & Ferruccio Spinetti - Musica Nuda\06 - Guarda che luna.wav
Pre-gap length 0:00:02.00
Peak level 88.4 %
Track quality 100.0 %
Test CRC C7265C19
Copy CRC C7265C19
Accurately ripped (confidence 2) [8FC7FAA3]
Copy OK
Track 7
Filename D:\STemp\Petra Magoni & Ferruccio Spinetti - Musica Nuda\07 - Maledetto sia l'aspetto.wav
Pre-gap length 0:00:02.00
Peak level 86.2 %
Track quality 100.0 %
Test CRC DA4F9BE1
Copy CRC DA4F9BE1
Accurately ripped (confidence 2) [B31F6C65]
Copy OK
Track 8
Filename D:\STemp\Petra Magoni & Ferruccio Spinetti - Musica Nuda\08 - Blackbird.wav
Pre-gap length 0:00:02.00
Peak level 84.4 %
Track quality 100.0 %
Test CRC 9A7CD3D0
Copy CRC 9A7CD3D0
Accurately ripped (confidence 2) [5E0455CC]
Copy OK
Track 9
Filename D:\STemp\Petra Magoni & Ferruccio Spinetti - Musica Nuda\09 - Sacrifice.wav
Pre-gap length 0:00:02.00
Peak level 98.1 %
Track quality 100.0 %
Test CRC A0222CBA
Copy CRC A0222CBA
Accurately ripped (confidence 2) [CF246BDE]
Copy OK
Track 10
Filename D:\STemp\Petra Magoni & Ferruccio Spinetti - Musica Nuda\10 - How Intro - How Insensitive.wav
Pre-gap length 0:00:02.00
Peak level 79.1 %
Track quality 100.0 %
Test CRC 2633B205
Copy CRC 2633B205
Accurately ripped (confidence 2) [8B1FA13F]
Copy OK
Track 11
Filename D:\STemp\Petra Magoni & Ferruccio Spinetti - Musica Nuda\11 - Voglio di vita uscir.wav
Pre-gap length 0:00:02.00
Peak level 82.2 %
Track quality 100.0 %
Test CRC 4A7D9002
Copy CRC 4A7D9002
Accurately ripped (confidence 2) [CD142351]
Copy OK
Track 12
Filename D:\STemp\Petra Magoni & Ferruccio Spinetti - Musica Nuda\12 - Raindrops keep falling on my head.wav
Pre-gap length 0:00:02.00
Peak level 81.0 %
Track quality 99.9 %
Test CRC 614E1B0B
Copy CRC 614E1B0B
Accurately ripped (confidence 2) [4BF5BC6D]
Copy OK
Track 13
Filename D:\STemp\Petra Magoni & Ferruccio Spinetti - Musica Nuda\13 - Nessuno.wav
Pre-gap length 0:00:02.00
Peak level 88.8 %
Track quality 100.0 %
Test CRC 1D3EB97D
Copy CRC 1D3EB97D
Accurately ripped (confidence 2) [842AF11C]
Copy OK
Track 14
Filename D:\STemp\Petra Magoni & Ferruccio Spinetti - Musica Nuda\14 - Nature boy.wav
Pre-gap length 0:00:02.00
Peak level 92.6 %
Track quality 100.0 %
Test CRC 6E37FAA8
Copy CRC 6E37FAA8
Accurately ripped (confidence 2) [3DD55EE8]
Copy OK
Track 15
Filename D:\STemp\Petra Magoni & Ferruccio Spinetti - Musica Nuda\15 - Imagine.wav
Pre-gap length 0:00:02.00
Peak level 96.0 %
Track quality 100.0 %
Test CRC 55AA0FAD
Copy CRC 55AA0FAD
Accurately ripped (confidence 2) [02EC1574]
Copy OK
All tracks accurately ripped
No errors occurred
End of status report
 
auCDtect's log
-----------------------
DON'T MODIFY THIS FILE
-----------------------
PERFORMER: auCDtect Task Manager, ver. 1.5.1RC3 build 1.5.1.4
Copyright (c) 2008-2010 y-soft. All rights reserved
http://y-soft.org
ANALYZER: auCDtect: CD records authenticity detector, version 0.8.2
Copyright (c) 2004 Oleg Berngardt. All rights reserved.
Copyright (c) 2004 Alexander Djourik. All rights reserved.
FILE: 15 - Imagine.flac
Size: 36089453 Hash: 7F1DD3B77B6893DCABB982885CB753CC Accuracy: -m0
Conclusion: CDDA 100%
Signature: 6DC75F5F500E87FF9B0992B60779515190BF6571
FILE: 14 - Nature boy.flac
Size: 28466022 Hash: 933C10A5FA5B940B82C834B02128C954 Accuracy: -m0
Conclusion: CDDA 100%
Signature: 1BBC3441656C8078902C2F1995F8C0DAE54BED74
FILE: 13 - Nessuno.flac
Size: 8172360 Hash: B628BD0064FC5651425E452B32645591 Accuracy: -m0
Conclusion: CDDA 100%
Signature: D65EC7383F895D30B60776BAB40CB331C531CA17
FILE: 12 - Raindrops keep falling on my head.flac
Size: 13589857 Hash: FFE30D6A2DC29BC7E8FE36B835FD00AA Accuracy: -m0
Conclusion: CDDA 100%
Signature: E9C406A658CAD933202B51BB3F32BE72609CEF46
FILE: 11 - Voglio di vita uscir.flac
Size: 8934073 Hash: 7229EE1569F05847DA755A9FEDD1166D Accuracy: -m0
Conclusion: CDDA 100%
Signature: 89FE2B10A06E6C738A6AF40C8CC65AF34AD94560
FILE: 10 - How Intro - How Insensitive.flac
Size: 11691632 Hash: A332357DD06CBA41D757A9FF03BABCD4 Accuracy: -m0
Conclusion: CDDA 99%
Signature: F8D66D463AD164AFB82F7B48F448A15F8EBFEB72
FILE: 09 - Sacrifice.flac
Size: 18227438 Hash: CE848E7E78C063FD0C5116C4F5562DB8 Accuracy: -m0
Conclusion: CDDA 100%
Signature: 94C74D35C1C5CF1DCCBE9CD5202918F9E9DADDFE
FILE: 08 - Blackbird.flac
Size: 9599918 Hash: 69D88C9D877B61F58B3C515A15EA4EFB Accuracy: -m0
Conclusion: CDDA 100%
Signature: 8CF0602C3C858925BFA31318E688D93E4A96C865
FILE: 07 - Maledetto sia l'aspetto.flac
Size: 4790637 Hash: 0A89B8B4EFE1461E6846CF2E2292C710 Accuracy: -m0
Conclusion: CDDA 100%
Signature: 76FA5A881874B438FD1A528C6AD789D972682B6D
FILE: 06 - Guarda che luna.flac
Size: 13706152 Hash: CAA70D407A50C1E02F4A8A962FFDE7F3 Accuracy: -m0
Conclusion: CDDA 100%
Signature: C4E79D87FA24F5506F0C7A39B8AD27861C141159
FILE: 05 - I will survive.flac
Size: 19206729 Hash: CD048F10894FE3E51915070F93845003 Accuracy: -m0
Conclusion: CDDA 99%
Signature: 256CA221C082FF932ECA372C156B15659C6D3D08
FILE: 04 - Run with me.flac
Size: 17967537 Hash: 84349CAC403F5ECE304DF70A980A04E9 Accuracy: -m0
Conclusion: CDDA 99%
Signature: F5E33D02729F5492081BE77D1254E1C95466980A
FILE: 03 - Prendila cosi'.flac
Size: 22844270 Hash: 68DB0C6C8D4FE6153DDC2BC6FCCC918D Accuracy: -m0
Conclusion: CDDA 100%
Signature: 713C402963DFDDDD508E6FC1AE984F7392D385B6
FILE: 02 - Roxanne.flac
Size: 15949140 Hash: 7F7101BACF879F10294531EC7797AB5A Accuracy: -m0
Conclusion: CDDA 100%
Signature: 46C383E663055AFFB6D9FC843021B83E26691229
FILE: 01 - Eleanor Rigby.flac
Size: 12939666 Hash: D6A149E6A4DCF1E614E9548B47E32F55 Accuracy: -m0
Conclusion: CDDA 100%
Signature: 76618D8FCC355F15132EFE8E93EF09C9803538CE
 
.cue
REM GENRE Jazz
REM DATE 2004
REM DISCID C80BDA0F
REM COMMENT "ExactAudioCopy v0.99pb4"
PERFORMER "Petra Magoni - Ferruccio Spinetti"
TITLE "Musica Nuda"
FILE "01 - Eleanor Rigby.wav" WAVE
TRACK 01 AUDIO
TITLE "Eleanor Rigby"
PERFORMER "Petra Magoni - Ferruccio Spinetti"
INDEX 01 00:00:00
TRACK 02 AUDIO
TITLE "Roxanne"
PERFORMER "Petra Magoni - Ferruccio Spinetti"
INDEX 00 02:30:36
FILE "02 - Roxanne.wav" WAVE
INDEX 01 00:00:00
TRACK 03 AUDIO
TITLE "Prendila cosi'"
PERFORMER "Petra Magoni - Ferruccio Spinetti"
INDEX 00 03:16:04
FILE "03 - Prendila cosм.wav" WAVE
INDEX 01 00:00:00
TRACK 04 AUDIO
TITLE "Run with me"
PERFORMER "Petra Magoni - Ferruccio Spinetti"
INDEX 00 04:17:72
FILE "04 - Run with me.wav" WAVE
INDEX 01 00:00:00
TRACK 05 AUDIO
TITLE "I will survive"
PERFORMER "Petra Magoni - Ferruccio Spinetti"
INDEX 00 03:53:74
FILE "05 - I will survive.wav" WAVE
INDEX 01 00:00:00
TRACK 06 AUDIO
TITLE "Guarda che luna"
PERFORMER "Petra Magoni - Ferruccio Spinetti"
INDEX 00 03:48:13
FILE "06 - Guarda che luna.wav" WAVE
INDEX 01 00:00:00
TRACK 07 AUDIO
TITLE "Maledetto sia l'aspetto"
PERFORMER "Petra Magoni - Ferruccio Spinetti"
INDEX 00 02:27:68
FILE "07 - Maledetto sia l'aspetto.wav" WAVE
INDEX 01 00:00:00
TRACK 08 AUDIO
TITLE "Blackbird"
PERFORMER "Petra Magoni - Ferruccio Spinetti"
INDEX 00 00:55:74
FILE "08 - Blackbird.wav" WAVE
INDEX 01 00:00:00
TRACK 09 AUDIO
TITLE "Sacrifice"
PERFORMER "Petra Magoni - Ferruccio Spinetti"
INDEX 00 01:54:06
FILE "09 - Sacrifice.wav" WAVE
INDEX 01 00:00:00
TRACK 10 AUDIO
TITLE "How Intro - How Insensitive"
PERFORMER "Petra Magoni - Ferruccio Spinetti"
INDEX 00 03:36:24
FILE "10 - How Intro - How Insensitive.wav" WAVE
INDEX 01 00:00:00
TRACK 11 AUDIO
TITLE "Voglio di vita uscir"
PERFORMER "Petra Magoni - Ferruccio Spinetti"
INDEX 00 02:34:11
FILE "11 - Voglio di vita uscir.wav" WAVE
INDEX 01 00:00:00
TRACK 12 AUDIO
TITLE "Raindrops keep falling on my head"
PERFORMER "Petra Magoni - Ferruccio Spinetti"
INDEX 00 01:48:39
FILE "12 - Raindrops keep falling on my head.wav" WAVE
INDEX 01 00:00:00
TRACK 13 AUDIO
TITLE "Nessuno"
PERFORMER "Petra Magoni - Ferruccio Spinetti"
INDEX 00 02:58:25
FILE "13 - Nessuno.wav" WAVE
INDEX 01 00:00:00
TRACK 14 AUDIO
TITLE "Nature boy"
PERFORMER "Petra Magoni - Ferruccio Spinetti"
INDEX 00 01:35:39
FILE "14 - Nature boy.wav" WAVE
INDEX 01 00:00:00
TRACK 15 AUDIO
TITLE "Imagine"
PERFORMER "Petra Magoni - Ferruccio Spinetti"
INDEX 00 06:04:47
FILE "15 - Imagine.wav" WAVE
INDEX 01 00:00:00
 
2006 - Musica Nuda 2 (2CD)
Год выпуска: 2006
Лейбл, каталожный номер: Edel, 0180932RAF
Аудио кодек: FLAC
Тип рипа: tracks+.cue
Продолжительность: 0:45:05 + 0:47:35
Источник: другой трекер, сканы в комплекте, раздача осуществляется с любезного согласия оригинального релизера. Thanks to pieropicco!
Трэклист CD1:
01. Come together (3:40)
02. Io sono meta' (3:13)
03. 5+7 (1:04)
04. Non andare via (2:39)
05. Couleur cafe' (2:44)
06. Never can say goodbye (3:24)
07. Dindiandi (2:38)
08. Like a virgin (2:54)
09. Lascia ch'io pianga (2:48)
10. Il cacio con le pere (1:58)
11. Splendido splendente (3:08)
12. Le due corde vocali (3:59)
13. Sirene (1:31)
14. La vie en noir (2:22)
15. Il camello e il dromedario (2:45)
16. Over the rainbow (4:17)
Трэклист CD2:
01. Why Judy why (3:59)
02. I almost had a weakness (5:12)
03. Some other time (3:23)
04. Modena park (2:50)
05. Take a bow (4:13)
06. Anima animale (4:29)
07. Non arrossire (4:09)
08. Pensieri de niente (2:58)
09. Anninia (3:42)
10. L'amore arancione (3:43)
11. My favourite things (8:57)
 
EAC log CD1
Exact Audio Copy V0.99 prebeta 4 from 23. January 2008
EAC extraction logfile from 23. January 2010, 15:19
Petra Magoni & Ferruccio Spinetti / Musica Nuda 2 (cd1)
Used drive : HL-DT-STDVD-ROM GDR8161B Adapter: 0 ID: 1
Read mode : Secure
Utilize accurate stream : Yes
Defeat audio cache : Yes
Make use of C2 pointers : No
Read offset correction : 102
Overread into Lead-In and Lead-Out : No
Fill up missing offset samples with silence : Yes
Delete leading and trailing silent blocks : No
Null samples used in CRC calculations : Yes
Used interface : Native Win32 interface for Win NT & 2000
Gap handling : Appended to previous track
Used output format : User Defined Encoder
Selected bitrate : 768 kBit/s
Quality : High
Add ID3 tag : No
Command line compressor : C:\Program Files\Exact Audio Copy\FLAC\FLAC.EXE
Additional command line options : -8 -V -T "ARTIST=%a" -T "TITLE=%t" -T "ALBUM=%g" -T "DATE=%y" -T "TRACKNUMBER=%n" -T "GENRE=%m" -T "COMMENT=EAC FLAC -8" %s
TOC of the extracted CD
Track | Start | Length | Start sector | End sector
---------------------------------------------------------
1 | 0:00.00 | 3:40.08 | 0 | 16507
2 | 3:40.08 | 3:13.12 | 16508 | 30994
3 | 6:53.20 | 1:03.47 | 30995 | 35766
4 | 7:56.67 | 2:38.60 | 35767 | 47676
5 | 10:35.52 | 2:43.69 | 47677 | 59970
6 | 13:19.46 | 3:23.71 | 59971 | 75266
7 | 16:43.42 | 2:38.28 | 75267 | 87144
8 | 19:21.70 | 2:54.11 | 87145 | 100205
9 | 22:16.06 | 2:48.33 | 100206 | 112838
10 | 25:04.39 | 1:58.36 | 112839 | 121724
11 | 27:03.00 | 3:07.71 | 121725 | 135820
12 | 30:10.71 | 3:58.58 | 135821 | 153728
13 | 34:09.54 | 1:31.25 | 153729 | 160578
14 | 35:41.04 | 2:21.48 | 160579 | 171201
15 | 38:02.52 | 2:45.13 | 171202 | 183589
16 | 40:47.65 | 4:17.09 | 183590 | 202873
Track 1
Filename D:\STemp\Petra Magoni & Ferruccio Spinetti - Musica Nuda 2\CD1of2\01 - Come together.wav
Pre-gap length 0:00:02.00
Peak level 100.0 %
Track quality 100.0 %
Test CRC 7D15D612
Copy CRC 7D15D612
Cannot be verified as accurate (confidence 15) [4BFC31B0], AccurateRip returned [F778CD1F]
Copy OK
Track 2
Filename D:\STemp\Petra Magoni & Ferruccio Spinetti - Musica Nuda 2\CD1of2\02 - Io sono meta'.wav
Pre-gap length 0:00:00.09
Peak level 98.5 %
Track quality 100.0 %
Test CRC B509BE31
Copy CRC B509BE31
Cannot be verified as accurate (confidence 15) [42EBA006], AccurateRip returned [3D088165]
Copy OK
Track 3
Filename D:\STemp\Petra Magoni & Ferruccio Spinetti - Musica Nuda 2\CD1of2\03 - 5+7.wav
Pre-gap length 0:00:00.08
Peak level 100.0 %
Track quality 100.0 %
Test CRC 08C82759
Copy CRC 08C82759
Cannot be verified as accurate (confidence 15) [8B93ECD5], AccurateRip returned [34567417]
Copy OK
Track 4
Filename D:\STemp\Petra Magoni & Ferruccio Spinetti - Musica Nuda 2\CD1of2\04 - Non andare via.wav
Peak level 98.4 %
Track quality 100.0 %
Test CRC 404045B1
Copy CRC 404045B1
Cannot be verified as accurate (confidence 15) [43DADB13], AccurateRip returned [C4EF71B1]
Copy OK
Track 5
Filename D:\STemp\Petra Magoni & Ferruccio Spinetti - Musica Nuda 2\CD1of2\05 - Couleur cafe'.wav
Pre-gap length 0:00:01.00
Peak level 100.0 %
Track quality 100.0 %
Test CRC 68DDCC91
Copy CRC 68DDCC91
Cannot be verified as accurate (confidence 15) [4C223CD5], AccurateRip returned [026490EE]
Copy OK
Track 6
Filename D:\STemp\Petra Magoni & Ferruccio Spinetti - Musica Nuda 2\CD1of2\06 - Never can say goodbye.wav
Pre-gap length 0:00:02.70
Peak level 100.0 %
Track quality 100.0 %
Test CRC CA6C749D
Copy CRC CA6C749D
Cannot be verified as accurate (confidence 15) [29493E60], AccurateRip returned [768A3E67]
Copy OK
Track 7
Filename D:\STemp\Petra Magoni & Ferruccio Spinetti - Musica Nuda 2\CD1of2\07 - Dindiandi.wav
Pre-gap length 0:00:00.20
Peak level 97.4 %
Track quality 99.9 %
Test CRC C93AA029
Copy CRC C93AA029
Cannot be verified as accurate (confidence 15) [FBBC6581], AccurateRip returned [372D7D01]
Copy OK
Track 8
Filename D:\STemp\Petra Magoni & Ferruccio Spinetti - Musica Nuda 2\CD1of2\08 - Like a virgin.wav
Pre-gap length 0:00:02.17
Peak level 98.4 %
Track quality 100.0 %
Test CRC 66AEDC72
Copy CRC 66AEDC72
Cannot be verified as accurate (confidence 15) [2461F2C6], AccurateRip returned [84CBD4FA]
Copy OK
Track 9
Filename D:\STemp\Petra Magoni & Ferruccio Spinetti - Musica Nuda 2\CD1of2\09 - Lascia ch'io pianga.wav
Pre-gap length 0:00:01.92
Peak level 98.6 %
Track quality 100.0 %
Test CRC 03E600AF
Copy CRC 03E600AF
Cannot be verified as accurate (confidence 15) [B44178B4], AccurateRip returned [32B4DFFF]
Copy OK
Track 10
Filename D:\STemp\Petra Magoni & Ferruccio Spinetti - Musica Nuda 2\CD1of2\10 - Il cacio con le pere.wav
Pre-gap length 0:00:03.34
Peak level 99.9 %
Track quality 100.0 %
Test CRC E4B08C8A
Copy CRC E4B08C8A
Cannot be verified as accurate (confidence 15) [B503904D], AccurateRip returned [406840BB]
Copy OK
Track 11
Filename D:\STemp\Petra Magoni & Ferruccio Spinetti - Musica Nuda 2\CD1of2\11 - Splendido splendente.wav
Pre-gap length 0:00:01.86
Peak level 97.8 %
Track quality 99.9 %
Test CRC DDA00F99
Copy CRC DDA00F99
Cannot be verified as accurate (confidence 15) [772F8373], AccurateRip returned [E028ED20]
Copy OK
Track 12
Filename D:\STemp\Petra Magoni & Ferruccio Spinetti - Musica Nuda 2\CD1of2\12 - Le due corde vocali.wav
Pre-gap length 0:00:00.50
Peak level 100.0 %
Track quality 100.0 %
Test CRC 4D13E474
Copy CRC 4D13E474
Cannot be verified as accurate (confidence 15) [3AD29081], AccurateRip returned [DB1BCE4A]
Copy OK
Track 13
Filename D:\STemp\Petra Magoni & Ferruccio Spinetti - Musica Nuda 2\CD1of2\13 - Sirene.wav
Pre-gap length 0:00:03.12
Peak level 97.1 %
Track quality 100.0 %
Test CRC 68BFAA6E
Copy CRC 68BFAA6E
Cannot be verified as accurate (confidence 15) [FBC1F79C], AccurateRip returned [FC091D74]
Copy OK
Track 14
Filename D:\STemp\Petra Magoni & Ferruccio Spinetti - Musica Nuda 2\CD1of2\14 - La vie en noir.wav
Pre-gap length 0:00:01.46
Peak level 98.3 %
Track quality 100.0 %
Test CRC F7B88C46
Copy CRC F7B88C46
Cannot be verified as accurate (confidence 15) [3B7A466C], AccurateRip returned [F0F94D35]
Copy OK
Track 15
Filename D:\STemp\Petra Magoni & Ferruccio Spinetti - Musica Nuda 2\CD1of2\15 - Il camello e il dromedario.wav
Peak level 98.4 %
Track quality 100.0 %
Test CRC DD55B102
Copy CRC DD55B102
Cannot be verified as accurate (confidence 15) [0379AA12], AccurateRip returned [4DC77901]
Copy OK
Track 16
Filename D:\STemp\Petra Magoni & Ferruccio Spinetti - Musica Nuda 2\CD1of2\16 - Over the rainbow.wav
Pre-gap length 0:00:03.14
Peak level 97.2 %
Track quality 100.0 %
Test CRC 0499BA37
Copy CRC 0499BA37
Cannot be verified as accurate (confidence 14) [B4E70C34], AccurateRip returned [5A9F092E]
Copy OK
No tracks could be verified as accurate
You may have a different pressing from the one(s) in the database
No errors occurred
End of status report
Exact Audio Copy V0.99 prebeta 4 from 23. January 2008
EAC extraction logfile from 23. January 2010, 15:19
Petra Magoni & Ferruccio Spinetti / Musica Nuda 2 (cd1)
Used drive : HL-DT-STDVD-ROM GDR8161B Adapter: 0 ID: 1
Read mode : Secure
Utilize accurate stream : Yes
Defeat audio cache : Yes
Make use of C2 pointers : No
Read offset correction : 102
Overread into Lead-In and Lead-Out : No
Fill up missing offset samples with silence : Yes
Delete leading and trailing silent blocks : No
Null samples used in CRC calculations : Yes
Used interface : Native Win32 interface for Win NT & 2000
Gap handling : Appended to previous track
Used output format : User Defined Encoder
Selected bitrate : 768 kBit/s
Quality : High
Add ID3 tag : No
Command line compressor : C:\Program Files\Exact Audio Copy\FLAC\FLAC.EXE
Additional command line options : -8 -V -T "ARTIST=%a" -T "TITLE=%t" -T "ALBUM=%g" -T "DATE=%y" -T "TRACKNUMBER=%n" -T "GENRE=%m" -T "COMMENT=EAC FLAC -8" %s
TOC of the extracted CD
Track | Start | Length | Start sector | End sector
---------------------------------------------------------
1 | 0:00.00 | 3:40.08 | 0 | 16507
2 | 3:40.08 | 3:13.12 | 16508 | 30994
3 | 6:53.20 | 1:03.47 | 30995 | 35766
4 | 7:56.67 | 2:38.60 | 35767 | 47676
5 | 10:35.52 | 2:43.69 | 47677 | 59970
6 | 13:19.46 | 3:23.71 | 59971 | 75266
7 | 16:43.42 | 2:38.28 | 75267 | 87144
8 | 19:21.70 | 2:54.11 | 87145 | 100205
9 | 22:16.06 | 2:48.33 | 100206 | 112838
10 | 25:04.39 | 1:58.36 | 112839 | 121724
11 | 27:03.00 | 3:07.71 | 121725 | 135820
12 | 30:10.71 | 3:58.58 | 135821 | 153728
13 | 34:09.54 | 1:31.25 | 153729 | 160578
14 | 35:41.04 | 2:21.48 | 160579 | 171201
15 | 38:02.52 | 2:45.13 | 171202 | 183589
16 | 40:47.65 | 4:17.09 | 183590 | 202873
Track 1
Filename D:\STemp\Petra Magoni & Ferruccio Spinetti - Musica Nuda 2\CD1of2\01 - Come together.wav
Pre-gap length 0:00:02.00
Peak level 100.0 %
Track quality 100.0 %
Test CRC 7D15D612
Copy CRC 7D15D612
Cannot be verified as accurate (confidence 15) [4BFC31B0], AccurateRip returned [F778CD1F]
Copy OK
Track 2
Filename D:\STemp\Petra Magoni & Ferruccio Spinetti - Musica Nuda 2\CD1of2\02 - Io sono meta'.wav
Pre-gap length 0:00:00.09
Peak level 98.5 %
Track quality 100.0 %
Test CRC B509BE31
Copy CRC B509BE31
Cannot be verified as accurate (confidence 15) [42EBA006], AccurateRip returned [3D088165]
Copy OK
Track 3
Filename D:\STemp\Petra Magoni & Ferruccio Spinetti - Musica Nuda 2\CD1of2\03 - 5+7.wav
Pre-gap length 0:00:00.08
Peak level 100.0 %
Track quality 100.0 %
Test CRC 08C82759
Copy CRC 08C82759
Cannot be verified as accurate (confidence 15) [8B93ECD5], AccurateRip returned [34567417]
Copy OK
Track 4
Filename D:\STemp\Petra Magoni & Ferruccio Spinetti - Musica Nuda 2\CD1of2\04 - Non andare via.wav
Peak level 98.4 %
Track quality 100.0 %
Test CRC 404045B1
Copy CRC 404045B1
Cannot be verified as accurate (confidence 15) [43DADB13], AccurateRip returned [C4EF71B1]
Copy OK
Track 5
Filename D:\STemp\Petra Magoni & Ferruccio Spinetti - Musica Nuda 2\CD1of2\05 - Couleur cafe'.wav
Pre-gap length 0:00:01.00
Peak level 100.0 %
Track quality 100.0 %
Test CRC 68DDCC91
Copy CRC 68DDCC91
Cannot be verified as accurate (confidence 15) [4C223CD5], AccurateRip returned [026490EE]
Copy OK
Track 6
Filename D:\STemp\Petra Magoni & Ferruccio Spinetti - Musica Nuda 2\CD1of2\06 - Never can say goodbye.wav
Pre-gap length 0:00:02.70
Peak level 100.0 %
Track quality 100.0 %
Test CRC CA6C749D
Copy CRC CA6C749D
Cannot be verified as accurate (confidence 15) [29493E60], AccurateRip returned [768A3E67]
Copy OK
Track 7
Filename D:\STemp\Petra Magoni & Ferruccio Spinetti - Musica Nuda 2\CD1of2\07 - Dindiandi.wav
Pre-gap length 0:00:00.20
Peak level 97.4 %
Track quality 99.9 %
Test CRC C93AA029
Copy CRC C93AA029
Cannot be verified as accurate (confidence 15) [FBBC6581], AccurateRip returned [372D7D01]
Copy OK
Track 8
Filename D:\STemp\Petra Magoni & Ferruccio Spinetti - Musica Nuda 2\CD1of2\08 - Like a virgin.wav
Pre-gap length 0:00:02.17
Peak level 98.4 %
Track quality 100.0 %
Test CRC 66AEDC72
Copy CRC 66AEDC72
Cannot be verified as accurate (confidence 15) [2461F2C6], AccurateRip returned [84CBD4FA]
Copy OK
Track 9
Filename D:\STemp\Petra Magoni & Ferruccio Spinetti - Musica Nuda 2\CD1of2\09 - Lascia ch'io pianga.wav
Pre-gap length 0:00:01.92
Peak level 98.6 %
Track quality 100.0 %
Test CRC 03E600AF
Copy CRC 03E600AF
Cannot be verified as accurate (confidence 15) [B44178B4], AccurateRip returned [32B4DFFF]
Copy OK
Track 10
Filename D:\STemp\Petra Magoni & Ferruccio Spinetti - Musica Nuda 2\CD1of2\10 - Il cacio con le pere.wav
Pre-gap length 0:00:03.34
Peak level 99.9 %
Track quality 100.0 %
Test CRC E4B08C8A
Copy CRC E4B08C8A
Cannot be verified as accurate (confidence 15) [B503904D], AccurateRip returned [406840BB]
Copy OK
Track 11
Filename D:\STemp\Petra Magoni & Ferruccio Spinetti - Musica Nuda 2\CD1of2\11 - Splendido splendente.wav
Pre-gap length 0:00:01.86
Peak level 97.8 %
Track quality 99.9 %
Test CRC DDA00F99
Copy CRC DDA00F99
Cannot be verified as accurate (confidence 15) [772F8373], AccurateRip returned [E028ED20]
Copy OK
Track 12
Filename D:\STemp\Petra Magoni & Ferruccio Spinetti - Musica Nuda 2\CD1of2\12 - Le due corde vocali.wav
Pre-gap length 0:00:00.50
Peak level 100.0 %
Track quality 100.0 %
Test CRC 4D13E474
Copy CRC 4D13E474
Cannot be verified as accurate (confidence 15) [3AD29081], AccurateRip returned [DB1BCE4A]
Copy OK
Track 13
Filename D:\STemp\Petra Magoni & Ferruccio Spinetti - Musica Nuda 2\CD1of2\13 - Sirene.wav
Pre-gap length 0:00:03.12
Peak level 97.1 %
Track quality 100.0 %
Test CRC 68BFAA6E
Copy CRC 68BFAA6E
Cannot be verified as accurate (confidence 15) [FBC1F79C], AccurateRip returned [FC091D74]
Copy OK
Track 14
Filename D:\STemp\Petra Magoni & Ferruccio Spinetti - Musica Nuda 2\CD1of2\14 - La vie en noir.wav
Pre-gap length 0:00:01.46
Peak level 98.3 %
Track quality 100.0 %
Test CRC F7B88C46
Copy CRC F7B88C46
Cannot be verified as accurate (confidence 15) [3B7A466C], AccurateRip returned [F0F94D35]
Copy OK
Track 15
Filename D:\STemp\Petra Magoni & Ferruccio Spinetti - Musica Nuda 2\CD1of2\15 - Il camello e il dromedario.wav
Peak level 98.4 %
Track quality 100.0 %
Test CRC DD55B102
Copy CRC DD55B102
Cannot be verified as accurate (confidence 15) [0379AA12], AccurateRip returned [4DC77901]
Copy OK
Track 16
Filename D:\STemp\Petra Magoni & Ferruccio Spinetti - Musica Nuda 2\CD1of2\16 - Over the rainbow.wav
Pre-gap length 0:00:03.14
Peak level 97.2 %
Track quality 100.0 %
Test CRC 0499BA37
Copy CRC 0499BA37
Cannot be verified as accurate (confidence 14) [B4E70C34], AccurateRip returned [5A9F092E]
Copy OK
No tracks could be verified as accurate
You may have a different pressing from the one(s) in the database
No errors occurred
End of status report
 
auCDtect's log CD1
-----------------------
DON'T MODIFY THIS FILE
-----------------------
PERFORMER: auCDtect Task Manager, ver. 1.5.1RC3 build 1.5.1.4
Copyright (c) 2008-2010 y-soft. All rights reserved
http://y-soft.org
ANALYZER: auCDtect: CD records authenticity detector, version 0.8.2
Copyright (c) 2004 Oleg Berngardt. All rights reserved.
Copyright (c) 2004 Alexander Djourik. All rights reserved.
FILE: 16 - Over the rainbow.flac
Size: 21011112 Hash: 809D1D1609D7CD20126C5EB49F7D06EC Accuracy: -m0
Conclusion: CDDA 100%
Signature: BC4C8F1B68606E1B69D71A35916BCE85A408ED35
FILE: 15 - Il camello e il dromedario.flac
Size: 16693534 Hash: FAD348482F88DFA7A01DD484E0DDA86F Accuracy: -m0
Conclusion: CDDA 100%
Signature: 4CBF4E8836869FBA39D281F1A771E4FCF27B508B
FILE: 14 - La vie en noir.flac
Size: 13569404 Hash: 34094263BFD0A7E0DFE5AFB5556756EC Accuracy: -m0
Conclusion: CDDA 100%
Signature: 8D75B1007BBF6F4308446258C80F199FF9A59754
FILE: 13 - Sirene.flac
Size: 9104408 Hash: 9EA1489F05C344B818D16C91258A2293 Accuracy: -m0
Conclusion: CDDA 100%
Signature: 39F7097BFA05FB2AFBD6D79DEE183FC13FF55959
FILE: 12 - Le due corde vocali.flac
Size: 25330704 Hash: 38936BB3FF592D1DE4E8770FC08A4C8E Accuracy: -m0
Conclusion: CDDA 94%
Signature: E706B731DBBAD84D85CB01AE17070F6833F1B6A3
FILE: 11 - Splendido splendente.flac
Size: 20239319 Hash: DBEA56373E6B34E52B6EB88B5E27590F Accuracy: -m0
Conclusion: CDDA 100%
Signature: 0870D6E4B11FCFF29BCCFF92B5C50CF09C35AFE2
FILE: 10 - Il cacio con le pere.flac
Size: 10359569 Hash: E5B264195203D5D324BA41E573FD0BD9 Accuracy: -m0
Conclusion: CDDA 100%
Signature: 27A35297224E2E65526797083E2B6B32FBEE4516
FILE: 09 - Lascia ch'io pianga.flac
Size: 15736113 Hash: 69C7304D8DCF980CF742D562C2D695D3 Accuracy: -m0
Conclusion: CDDA 42%
Signature: 30F6D76616D5A4E783B875230E57E11DD7A4E60A
FILE: 08 - Like a virgin.flac
Size: 16630814 Hash: 036B3C0302678F4FF44772C0210277CB Accuracy: -m0
Conclusion: CDDA 100%
Signature: C38A0A3CC70B747A0E8120D46A1486E5CAF913C0
FILE: 07 - Dindiandi.flac
Size: 15746065 Hash: B5F784928475D6445A185E490C02184D Accuracy: -m0
Conclusion: CDDA 100%
Signature: 5D44DF38D7F16F271AAD444A55D1F1C5DDBF4C52
FILE: 06 - Never can say goodbye.flac
Size: 20383776 Hash: F172D19387E62311FF783ED9782B196A Accuracy: -m0
Conclusion: CDDA 100%
Signature: E4E58E0488132B2B0031BE78433C6B1D6EE54F79
FILE: 05 - Couleur cafe'.flac
Size: 16465100 Hash: 44D01D53E8FBDA415733076171C6E140 Accuracy: -m0
Conclusion: CDDA 100%
Signature: 5190AF0A7FCC955AEE18ABCDC65F584439C1B26D
FILE: 04 - Non andare via.flac
Size: 14894469 Hash: 9CFD42B07E79C946A152AE9CB61852FD Accuracy: -m0
Conclusion: CDDA 99%
Signature: F508E94E6544C9C6AE5AA955A71DF49449DE188F
FILE: 03 - 5+7.flac
Size: 4834336 Hash: F0402F08C16F221D9CAC03ABD6C8C54E Accuracy: -m0
Conclusion: CDDA 100%
Signature: E948D696DE72ABF4DC7BEB6ED0FC979CF6FC6A29
FILE: 02 - Io sono meta'.flac
Size: 19144873 Hash: 66CFD455073E4B9CEA86F447ED36A913 Accuracy: -m0
Conclusion: CDDA 100%
Signature: AB1BF727D10344A905640282191FC2ABA8F19B46
FILE: 01 - Come together.flac
Size: 22981420 Hash: E321D77F5D198BD277C2242C57F2B0C9 Accuracy: -m0
Conclusion: CDDA 100%
Signature: AF24DBC28FA5286ADE485F2CA1D3AF66F12466CA
 
.cue CD1
REM GENRE Vocal
REM DATE 2006
REM DISCID B90A9010
REM COMMENT "ExactAudioCopy v0.99pb4"
PERFORMER "Petra Magoni & Ferruccio Spinetti"
TITLE "Musica Nuda 2 (cd1)"
FILE "01 - Come together.wav" WAVE
TRACK 01 AUDIO
TITLE "Come together"
PERFORMER "Petra Magoni & Ferruccio Spinetti"
INDEX 01 00:00:00
TRACK 02 AUDIO
TITLE "Io sono meta'"
PERFORMER "Petra Magoni & Ferruccio Spinetti"
INDEX 00 03:40:01
FILE "02 - Io sono meta'.wav" WAVE
INDEX 01 00:00:00
TRACK 03 AUDIO
TITLE "5+7"
PERFORMER "Petra Magoni & Ferruccio Spinetti"
INDEX 00 03:13:06
FILE "03 - 5+7.wav" WAVE
INDEX 01 00:00:00
FILE "04 - Non andare via.wav" WAVE
TRACK 04 AUDIO
TITLE "Non andare via"
PERFORMER "Petra Magoni & Ferruccio Spinetti"
INDEX 01 00:00:00
TRACK 05 AUDIO
TITLE "Couleur cafe'"
PERFORMER "Petra Magoni & Ferruccio Spinetti"
INDEX 00 02:37:60
FILE "05 - Couleur cafe'.wav" WAVE
INDEX 01 00:00:00
TRACK 06 AUDIO
TITLE "Never can say goodbye"
PERFORMER "Petra Magoni & Ferruccio Spinetti"
INDEX 00 02:41:16
FILE "06 - Never can say goodbye.wav" WAVE
INDEX 01 00:00:00
TRACK 07 AUDIO
TITLE "Dindiandi"
PERFORMER "Petra Magoni & Ferruccio Spinetti"
INDEX 00 03:23:56
FILE "07 - Dindiandi.wav" WAVE
INDEX 01 00:00:00
TRACK 08 AUDIO
TITLE "Like a virgin"
PERFORMER "Petra Magoni & Ferruccio Spinetti"
INDEX 00 02:36:15
FILE "08 - Like a virgin.wav" WAVE
INDEX 01 00:00:00
TRACK 09 AUDIO
TITLE "Lascia ch'io pianga"
PERFORMER "Petra Magoni & Ferruccio Spinetti"
INDEX 00 02:52:17
FILE "09 - Lascia ch'io pianga.wav" WAVE
INDEX 01 00:00:00
TRACK 10 AUDIO
TITLE "Il cacio con le pere"
PERFORMER "Petra Magoni & Ferruccio Spinetti"
INDEX 00 02:45:07
FILE "10 - Il cacio con le pere.wav" WAVE
INDEX 01 00:00:00
TRACK 11 AUDIO
TITLE "Splendido splendente"
PERFORMER "Petra Magoni & Ferruccio Spinetti"
INDEX 00 01:56:46
FILE "11 - Splendido splendente.wav" WAVE
INDEX 01 00:00:00
TRACK 12 AUDIO
TITLE "Le due corde vocali"
PERFORMER "Petra Magoni & Ferruccio Spinetti"
INDEX 00 03:07:33
FILE "12 - Le due corde vocali.wav" WAVE
INDEX 01 00:00:00
TRACK 13 AUDIO
TITLE "Sirene"
PERFORMER "Petra Magoni & Ferruccio Spinetti"
INDEX 00 03:55:49
FILE "13 - Sirene.wav" WAVE
INDEX 01 00:00:00
TRACK 14 AUDIO
TITLE "La vie en noir"
PERFORMER "Petra Magoni & Ferruccio Spinetti"
INDEX 00 01:29:65
FILE "14 - La vie en noir.wav" WAVE
INDEX 01 00:00:00
FILE "15 - Il camello e il dromedario.wav" WAVE
TRACK 15 AUDIO
TITLE "Il camello e il dromedario"
PERFORMER "Petra Magoni & Ferruccio Spinetti"
INDEX 01 00:00:00
TRACK 16 AUDIO
TITLE "Over the rainbow"
PERFORMER "Petra Magoni & Ferruccio Spinetti"
INDEX 00 02:42:02
FILE "16 - Over the rainbow.wav" WAVE
INDEX 01 00:00:00
 
EAC log CD2
Exact Audio Copy V0.99 prebeta 4 from 23. January 2008
EAC extraction logfile from 23. January 2010, 15:40
Petra Magoni & Ferruccio Spinetti / Musica Nuda 2 (disc 2)
Used drive : HL-DT-STDVD-ROM GDR8161B Adapter: 0 ID: 1
Read mode : Secure
Utilize accurate stream : Yes
Defeat audio cache : Yes
Make use of C2 pointers : No
Read offset correction : 102
Overread into Lead-In and Lead-Out : No
Fill up missing offset samples with silence : Yes
Delete leading and trailing silent blocks : No
Null samples used in CRC calculations : Yes
Used interface : Native Win32 interface for Win NT & 2000
Gap handling : Appended to previous track
Used output format : User Defined Encoder
Selected bitrate : 768 kBit/s
Quality : High
Add ID3 tag : No
Command line compressor : C:\Program Files\Exact Audio Copy\FLAC\FLAC.EXE
Additional command line options : -8 -V -T "ARTIST=%a" -T "TITLE=%t" -T "ALBUM=%g" -T "DATE=%y" -T "TRACKNUMBER=%n" -T "GENRE=%m" -T "COMMENT=EAC FLAC -8" %s
TOC of the extracted CD
Track | Start | Length | Start sector | End sector
---------------------------------------------------------
1 | 0:00.00 | 3:58.56 | 0 | 17905
2 | 3:58.56 | 5:12.10 | 17906 | 41315
3 | 9:10.66 | 3:22.73 | 41316 | 56538
4 | 12:33.64 | 2:49.71 | 56539 | 69284
5 | 15:23.60 | 4:12.46 | 69285 | 88230
6 | 19:36.31 | 4:29.24 | 88231 | 108429
7 | 24:05.55 | 4:09.07 | 108430 | 127111
8 | 28:14.62 | 2:58.03 | 127112 | 140464
9 | 31:12.65 | 3:41.60 | 140465 | 157099
10 | 34:54.50 | 3:42.73 | 157100 | 173822
11 | 38:37.48 | 8:56.74 | 173823 | 214096
Track 1
Filename D:\STemp\Petra Magoni & Ferruccio Spinetti - Musica Nuda 2\CD2of2\01 - Why Judy why.wav
Pre-gap length 0:00:02.00
Peak level 97.0 %
Track quality 99.9 %
Test CRC 95DDB457
Copy CRC 95DDB457
Cannot be verified as accurate (confidence 9) [7A1DD8D5], AccurateRip returned [2ABD5A27]
Copy OK
Track 2
Filename D:\STemp\Petra Magoni & Ferruccio Spinetti - Musica Nuda 2\CD2of2\02 - I almost had a weakness.wav
Pre-gap length 0:00:02.00
Peak level 97.8 %
Track quality 99.9 %
Test CRC 79E5AC0C
Copy CRC 79E5AC0C
Cannot be verified as accurate (confidence 9) [F6A22983], AccurateRip returned [41261C5F]
Copy OK
Track 3
Filename D:\STemp\Petra Magoni & Ferruccio Spinetti - Musica Nuda 2\CD2of2\03 - Some other time.wav
Pre-gap length 0:00:02.00
Peak level 96.9 %
Track quality 100.0 %
Test CRC 5A1D7F00
Copy CRC 5A1D7F00
Cannot be verified as accurate (confidence 9) [24C177DD], AccurateRip returned [28A1C00A]
Copy OK
Track 4
Filename D:\STemp\Petra Magoni & Ferruccio Spinetti - Musica Nuda 2\CD2of2\04 - Modena park.wav
Pre-gap length 0:00:02.01
Peak level 100.0 %
Track quality 100.0 %
Test CRC B5E39701
Copy CRC B5E39701
Cannot be verified as accurate (confidence 9) [1A044BC7], AccurateRip returned [9C30496A]
Copy OK
Track 5
Filename D:\STemp\Petra Magoni & Ferruccio Spinetti - Musica Nuda 2\CD2of2\05 - Take a bow.wav
Pre-gap length 0:00:02.04
Peak level 100.0 %
Track quality 100.0 %
Test CRC DCD64E26
Copy CRC DCD64E26
Cannot be verified as accurate (confidence 9) [9BBCF95B], AccurateRip returned [4C357F55]
Copy OK
Track 6
Filename D:\STemp\Petra Magoni & Ferruccio Spinetti - Musica Nuda 2\CD2of2\06 - Anima animale.wav
Pre-gap length 0:00:00.04
Peak level 100.0 %
Track quality 99.9 %
Test CRC 524443FD
Copy CRC 524443FD
Cannot be verified as accurate (confidence 9) [4E046C8B], AccurateRip returned [DE12F5A9]
Copy OK
Track 7
Filename D:\STemp\Petra Magoni & Ferruccio Spinetti - Musica Nuda 2\CD2of2\07 - Non arrossire.wav
Pre-gap length 0:00:03.10
Peak level 97.4 %
Track quality 100.0 %
Test CRC 5628486F
Copy CRC 5628486F
Cannot be verified as accurate (confidence 9) [DA0009DD], AccurateRip returned [5B5E467B]
Copy OK
Track 8
Filename D:\STemp\Petra Magoni & Ferruccio Spinetti - Musica Nuda 2\CD2of2\08 - Pensieri de niente.wav
Pre-gap length 0:00:00.50
Peak level 99.9 %
Track quality 100.0 %
Test CRC 0B59395C
Copy CRC 0B59395C
Cannot be verified as accurate (confidence 9) [6E9AA22E], AccurateRip returned [3EB42B1D]
Copy OK
Track 9
Filename D:\STemp\Petra Magoni & Ferruccio Spinetti - Musica Nuda 2\CD2of2\09 - Anninia.wav
Pre-gap length 0:00:01.85
Peak level 100.0 %
Track quality 99.9 %
Test CRC A6440E96
Copy CRC A6440E96
Cannot be verified as accurate (confidence 7) [8F8AA937], AccurateRip returned [14D79150]
Copy OK
Track 10
Filename D:\STemp\Petra Magoni & Ferruccio Spinetti - Musica Nuda 2\CD2of2\10 - L'amore arancione.wav
Pre-gap length 0:00:00.04
Peak level 100.0 %
Track quality 100.0 %
Test CRC F9812866
Copy CRC F9812866
Cannot be verified as accurate (confidence 9) [26C3888A], AccurateRip returned [4884B6B3]
Copy OK
Track 11
Filename D:\STemp\Petra Magoni & Ferruccio Spinetti - Musica Nuda 2\CD2of2\11 - My favourite things.wav
Pre-gap length 0:00:02.53
Peak level 100.0 %
Track quality 100.0 %
Test CRC 3709FC39
Copy CRC 3709FC39
Cannot be verified as accurate (confidence 9) [547B56BD], AccurateRip returned [3C71A09B]
Copy OK
No tracks could be verified as accurate
You may have a different pressing from the one(s) in the database
No errors occurred
End of status report
 
auCDtect's log CD2
-----------------------
DON'T MODIFY THIS FILE
-----------------------
PERFORMER: auCDtect Task Manager, ver. 1.5.1RC3 build 1.5.1.4
Copyright (c) 2008-2010 y-soft. All rights reserved
http://y-soft.org
ANALYZER: auCDtect: CD records authenticity detector, version 0.8.2
Copyright (c) 2004 Oleg Berngardt. All rights reserved.
Copyright (c) 2004 Alexander Djourik. All rights reserved.
FILE: 11 - My favourite things.flac
Size: 47989420 Hash: 9B4210FEB5B0DB590C5BC8A353161A27 Accuracy: -m0
Conclusion: CDDA 99%
Signature: 576C74009E39CFF2F7944BD5D9EB8DFBCD49260C
FILE: 10 - L'amore arancione.flac
Size: 20997333 Hash: AF7D7363AC8CEC2B7E73AE0B346DF60A Accuracy: -m0
Conclusion: CDDA 99%
Signature: DF74E488AAE014A66D4E7E63ACC90A60EAE789F9
FILE: 09 - Anninia.flac
Size: 23851603 Hash: FEA290B629C24D13D61EDFE2E8EAAB2F Accuracy: -m0
Conclusion: CDDA 100%
Signature: 55314432E306A3C03EB198FE1BABE75E08F4344C
FILE: 08 - Pensieri de niente.flac
Size: 18691711 Hash: 5A1B94802AEAF8754BF41C34B98B3435 Accuracy: -m0
Conclusion: CDDA 100%
Signature: D18B0B5E86B75D6A2A17BFD5F358E2E8FB6A2045
FILE: 07 - Non arrossire.flac
Size: 26591610 Hash: C40A68960FEDE1FF016FF90BBA0C9826 Accuracy: -m0
Conclusion: CDDA 100%
Signature: E937633ECCF8B32BE91E6268FDA55F0DACFB6061
FILE: 06 - Anima animale.flac
Size: 30365804 Hash: EA7218EA799636A707617EB518D24383 Accuracy: -m0
Conclusion: CDDA 100%
Signature: 56419DE478D39222FFA0F0B4835EE3331DE60C85
FILE: 05 - Take a bow.flac
Size: 25392494 Hash: 03AFB610269B7F5CB0EE943189EEC469 Accuracy: -m0
Conclusion: CDDA 100%
Signature: E3F61E71B1ACE4EFA8AF9AE2673C7DBAEDBC402A
FILE: 04 - Modena park.flac
Size: 17752088 Hash: 9BD383BDCB9DD424C203A33E3E3697CC Accuracy: -m0
Conclusion: CDDA 100%
Signature: 3A892A68CFE2EAE1A7B951CCA117C3291A420A73
FILE: 03 - Some other time.flac
Size: 18830983 Hash: 7064CB4F7822A6F19C97B18420E01B55 Accuracy: -m0
Conclusion: CDDA 100%
Signature: 3952276C049422854BF19910A7772B982F3E2DD4
FILE: 02 - I almost had a weakness.flac
Size: 29790879 Hash: FE66D1DF50110F461B5F8C1D31E986F1 Accuracy: -m0
Conclusion: CDDA 100%
Signature: E2A56A347D7BC6F334BC724AA5F61E00276BFEAE
FILE: 01 - Why Judy why.flac
Size: 22629870 Hash: 157614BB3E7F5B6A560E1589242E1161 Accuracy: -m0
Conclusion: CDDA 100%
Signature: 1DD72EED4B6055C481A052066A4B12D5D5CD82A0
 
.cue CD2
REM GENRE Jazz
REM DATE 2006
REM DISCID A00B260B
REM COMMENT "ExactAudioCopy v0.99pb4"
PERFORMER "Petra Magoni & Ferruccio Spinetti"
TITLE "Musica Nuda 2 (disc 2)"
FILE "01 - Why Judy why.wav" WAVE
TRACK 01 AUDIO
TITLE "Why Judy why "
PERFORMER "Petra Magoni & Ferruccio Spinetti"
INDEX 01 00:00:00
TRACK 02 AUDIO
TITLE "I almost had a weakness"
PERFORMER "Petra Magoni & Ferruccio Spinetti"
INDEX 00 03:56:56
FILE "02 - I almost had a weakness.wav" WAVE
INDEX 01 00:00:00
TRACK 03 AUDIO
TITLE "Some other time"
PERFORMER "Petra Magoni & Ferruccio Spinetti"
INDEX 00 05:10:10
FILE "03 - Some other time.wav" WAVE
INDEX 01 00:00:00
TRACK 04 AUDIO
TITLE "Modena park"
PERFORMER "Petra Magoni & Ferruccio Spinetti"
INDEX 00 03:20:72
FILE "04 - Modena park.wav" WAVE
INDEX 01 00:00:00
TRACK 05 AUDIO
TITLE "Take a bow"
PERFORMER "Petra Magoni & Ferruccio Spinetti"
INDEX 00 02:47:68
FILE "05 - Take a bow.wav" WAVE
INDEX 01 00:00:00
TRACK 06 AUDIO
TITLE "Anima animale"
PERFORMER "Petra Magoni & Ferruccio Spinetti"
INDEX 00 04:12:43
FILE "06 - Anima animale.wav" WAVE
INDEX 01 00:00:00
TRACK 07 AUDIO
TITLE "Non arrossire"
PERFORMER "Petra Magoni & Ferruccio Spinetti"
INDEX 00 04:26:16
FILE "07 - Non arrossire.wav" WAVE
INDEX 01 00:00:00
TRACK 08 AUDIO
TITLE "Pensieri de niente"
PERFORMER "Petra Magoni & Ferruccio Spinetti"
INDEX 00 04:08:44
FILE "08 - Pensieri de niente.wav" WAVE
INDEX 01 00:00:00
TRACK 09 AUDIO
TITLE "Anninia"
PERFORMER "Petra Magoni & Ferruccio Spinetti"
INDEX 00 02:56:14
FILE "09 - Anninia.wav" WAVE
INDEX 01 00:00:00
TRACK 10 AUDIO
TITLE "L'amore arancione"
PERFORMER "Petra Magoni & Ferruccio Spinetti"
INDEX 00 03:41:57
FILE "10 - L'amore arancione.wav" WAVE
INDEX 01 00:00:00
TRACK 11 AUDIO
TITLE "My favourite things"
PERFORMER "Petra Magoni & Ferruccio Spinetti"
INDEX 00 03:40:33
FILE "11 - My favourite things.wav" WAVE
INDEX 01 00:00:00
 
2007 - Live a Fip
Год выпуска: 2007
Лейбл, каталожный номер: Bonsai Music, BON 07 08 01
Аудио кодек: FLAC
Тип рипа: tracks+.cue
Продолжительность: 1:10:19
Источник: другой трекер, сканы в комплекте, оригинальный релизер - dtromp
Трэклист:
01. Come Together (3:44)
02. Roxane (3:33)
03. Message in a bottle (4:04)
04. Dindiandi (2:45)
05. Quando (3:20)
06. Io sono meta (3:23)
07. I will survive (4:07)
08. Day tripper (4:38)
09. Fever (4:56)
10. La voce del silencio (2:52)
11. Le due corde vocali (intro) (0:36)
12. Le due corde vocali (5:24)
13. Angeli (2:35)
14. Nessuno (2:05)
15. Couleur cafe (2:35)
16. Ne me quitte pas (3:10)
17. Amarilli (2:24)
18. You're the one that I want (4:09)
19. Il camello e il dromedario (3:24)
20. Perche no (3:59)
21. Guarda che luna (2:37)
 
EAC log
Exact Audio Copy V0.99 prebeta 5 from 4. May 2009
EAC extraction logfile from 1. September 2010, 11:19
Musica Nuda / Live a FIP
Used drive : PLEXTOR DVDR PX-860A Adapter: 0 ID: 0
Read mode : Secure
Utilize accurate stream : Yes
Defeat audio cache : Yes
Make use of C2 pointers : No
Read offset correction : 96
Overread into Lead-In and Lead-Out : No
Fill up missing offset samples with silence : Yes
Delete leading and trailing silent blocks : No
Null samples used in CRC calculations : Yes
Used interface : Native Win32 interface for Win NT & 2000
Gap handling : Appended to previous track
Used output format : User Defined Encoder
Selected bitrate : 768 kBit/s
Quality : High
Add ID3 tag : No
Command line compressor : C:\Program Files\FLAC\flac.exe
Additional command line options : -8 -V -T "ARTIST=%a" -T "TITLE=%t" -T "ALBUM=%g" -T "DATE=%y" -T "TRACKNUMBER=%n" -T "TOTALTRACKS=%x" -T "GENRE=%m" -T "ALBUM ARTIST=%v" -T "ALBUMARTIST=%v" -T "COMMENT=EAC V0.99 prebeta 5, Secure Mode, Test & Copy, Accurat
TOC of the extracted CD
Track | Start | Length | Start sector | End sector
---------------------------------------------------------
1 | 0:00.00 | 3:43.60 | 0 | 16784
2 | 3:43.60 | 3:32.69 | 16785 | 32753
3 | 7:16.54 | 4:03.41 | 32754 | 51019
4 | 11:20.20 | 2:44.40 | 51020 | 63359
5 | 14:04.60 | 3:20.08 | 63360 | 78367
6 | 17:24.68 | 3:23.03 | 78368 | 93595
7 | 20:47.71 | 4:07.31 | 93596 | 112151
8 | 24:55.27 | 4:37.45 | 112152 | 132971
9 | 29:32.72 | 4:55.61 | 132972 | 155157
10 | 34:28.58 | 2:51.46 | 155158 | 168028
11 | 37:20.29 | 0:36.01 | 168029 | 170729
12 | 37:56.30 | 5:24.27 | 170730 | 195056
13 | 43:20.57 | 2:34.53 | 195057 | 206659
14 | 45:55.35 | 2:04.66 | 206660 | 216025
15 | 48:00.26 | 2:34.38 | 216026 | 227613
16 | 50:34.64 | 3:10.06 | 227614 | 241869
17 | 53:44.70 | 2:24.04 | 241870 | 252673
18 | 56:08.74 | 4:09.00 | 252674 | 271348
19 | 60:17.74 | 3:24.30 | 271349 | 286678
20 | 63:42.29 | 3:58.74 | 286679 | 304602
21 | 67:41.28 | 2:37.14 | 304603 | 316391
Track 1
Filename M:\DL\Musica Nuda - Live a FIP (2007) [FLAC]\01 - Come Together.wav
Pre-gap length 0:00:02.00
Peak level 100.0 %
Track quality 99.9 %
Test CRC BD7B16E2
Copy CRC BD7B16E2
Accurately ripped (confidence 9) [A4F75D90]
Copy OK
Track 2
Filename M:\DL\Musica Nuda - Live a FIP (2007) [FLAC]\02 - Roxane.wav
Peak level 100.0 %
Track quality 100.0 %
Test CRC 09CFE2AF
Copy CRC 09CFE2AF
Accurately ripped (confidence 9) [A8824C25]
Copy OK
Track 3
Filename M:\DL\Musica Nuda - Live a FIP (2007) [FLAC]\03 - Message in a bottle.wav
Peak level 100.0 %
Track quality 100.0 %
Test CRC A8DD763E
Copy CRC A8DD763E
Accurately ripped (confidence 8) [C999CC8E]
Copy OK
Track 4
Filename M:\DL\Musica Nuda - Live a FIP (2007) [FLAC]\04 - Dindiandi.wav
Peak level 100.0 %
Track quality 100.0 %
Test CRC 2D2B499C
Copy CRC 2D2B499C
Accurately ripped (confidence 9) [CDF13924]
Copy OK
Track 5
Filename M:\DL\Musica Nuda - Live a FIP (2007) [FLAC]\05 - Quando.wav
Peak level 100.0 %
Track quality 100.0 %
Test CRC 0CE6E58C
Copy CRC 0CE6E58C
Accurately ripped (confidence 9) [203ECAA4]
Copy OK
Track 6
Filename M:\DL\Musica Nuda - Live a FIP (2007) [FLAC]\06 - Io sono meta.wav
Peak level 100.0 %
Track quality 100.0 %
Test CRC 4C15DD7D
Copy CRC 4C15DD7D
Accurately ripped (confidence 9) [2AC1BCB7]
Copy OK
Track 7
Filename M:\DL\Musica Nuda - Live a FIP (2007) [FLAC]\07 - I will survive.wav
Peak level 100.0 %
Track quality 100.0 %
Test CRC 84B4F371
Copy CRC 84B4F371
Accurately ripped (confidence 9) [FC1B111A]
Copy OK
Track 8
Filename M:\DL\Musica Nuda - Live a FIP (2007) [FLAC]\08 - Day tripper.wav
Peak level 100.0 %
Track quality 99.9 %
Test CRC 95E40558
Copy CRC 95E40558
Accurately ripped (confidence 9) [8C2F0467]
Copy OK
Track 9
Filename M:\DL\Musica Nuda - Live a FIP (2007) [FLAC]\09 - Fever.wav
Peak level 100.0 %
Track quality 100.0 %
Test CRC EF50F7C1
Copy CRC EF50F7C1
Accurately ripped (confidence 9) [9948CECD]
Copy OK
Track 10
Filename M:\DL\Musica Nuda - Live a FIP (2007) [FLAC]\10 - La voce del silencio.wav
Peak level 100.0 %
Track quality 100.0 %
Test CRC 2E0E10A1
Copy CRC 2E0E10A1
Accurately ripped (confidence 9) [6D6AE820]
Copy OK
Track 11
Filename M:\DL\Musica Nuda - Live a FIP (2007) [FLAC]\11 - Le due corde vocali (intro).wav
Peak level 100.0 %
Track quality 100.0 %
Test CRC D7C252F3
Copy CRC D7C252F3
Accurately ripped (confidence 9) [250EA454]
Copy OK
Track 12
Filename M:\DL\Musica Nuda - Live a FIP (2007) [FLAC]\12 - Le due corde vocali.wav
Peak level 100.0 %
Track quality 100.0 %
Test CRC 69FD5EAF
Copy CRC 69FD5EAF
Accurately ripped (confidence 8) [F25B94E4]
Copy OK
Track 13
Filename M:\DL\Musica Nuda - Live a FIP (2007) [FLAC]\13 - Angeli.wav
Peak level 100.0 %
Track quality 99.9 %
Test CRC B78CB6D1
Copy CRC B78CB6D1
Accurately ripped (confidence 9) [4B063FED]
Copy OK
Track 14
Filename M:\DL\Musica Nuda - Live a FIP (2007) [FLAC]\14 - Nessuno.wav
Peak level 100.0 %
Track quality 99.9 %
Test CRC 3C76236B
Copy CRC 3C76236B
Accurately ripped (confidence 9) [43F77893]
Copy OK
Track 15
Filename M:\DL\Musica Nuda - Live a FIP (2007) [FLAC]\15 - Couleur cafe.wav
Peak level 100.0 %
Track quality 100.0 %
Test CRC 4528232D
Copy CRC 4528232D
Accurately ripped (confidence 9) [5989D251]
Copy OK
Track 16
Filename M:\DL\Musica Nuda - Live a FIP (2007) [FLAC]\16 - Ne me quitte pas.wav
Peak level 100.0 %
Track quality 100.0 %
Test CRC C696FAA9
Copy CRC C696FAA9
Accurately ripped (confidence 9) [1418A913]
Copy OK
Track 17
Filename M:\DL\Musica Nuda - Live a FIP (2007) [FLAC]\17 - Amarilli.wav
Peak level 100.0 %
Track quality 100.0 %
Test CRC FE1458A9
Copy CRC FE1458A9
Accurately ripped (confidence 9) [C5A35A2A]
Copy OK
Track 18
Filename M:\DL\Musica Nuda - Live a FIP (2007) [FLAC]\18 - You're the one that I want.wav
Peak level 100.0 %
Track quality 100.0 %
Test CRC CD67A993
Copy CRC CD67A993
Accurately ripped (confidence 9) [12CD39E6]
Copy OK
Track 19
Filename M:\DL\Musica Nuda - Live a FIP (2007) [FLAC]\19 - Il camello e il dromedario.wav
Peak level 100.0 %
Track quality 100.0 %
Test CRC DC564180
Copy CRC DC564180
Accurately ripped (confidence 9) [B60E95DF]
Copy OK
Track 20
Filename M:\DL\Musica Nuda - Live a FIP (2007) [FLAC]\20 - Perche no.wav
Peak level 100.0 %
Track quality 100.0 %
Test CRC AFE4BD7F
Copy CRC AFE4BD7F
Accurately ripped (confidence 9) [3BFC04AC]
Any questions -> support@pro-jazz.com. По всем вопросам пишите -> support@pro-jazz.com
21:54
495
Нет комментариев. Ваш будет первым!