Поиск

(Vocal Jazz) Milton Nascimento - Pieta - 2005, APE (tracks+.cue), lossless

(Vocal Jazz) Milton Nascimento - Pieta - 2005, APE (tracks+.cue), lossless
Треклист:
Milton Nascimento - Pieta
Жанр: Vocal Jazz .
Год выпуска диска: 2005
Производитель диска: Brazil
Аудио кодек: APE
Тип рипа: tracks+.cue
Продолжительность: 70
Треклист:
1. A Feminina Voz Do Cantor
2. Casa Alberta
3. Beleza E Cancao
4. Tristesse
5. Quem Sabe Isso Quer Dizer Amor
6. Imagem E Semelhanca
7. A Lagrima E O Rio
8. Voa Bicho
9. Outro Lugar
10. As Vezes Deus Exagera
11. Cantaloupe Island - (featuring Pat Metheny/Herbie Hancock)
12. Pieta
13. Beira-Mar Novo
14. Os Meninos de Aracuai
15. Boa Noite
16. Vozes Do Vento
Доп. информация:
Milton Nascimento - vocals, guitar, accordion
Marina Machado, Simone Guimaraes, Elder Costa - vocals
Wilson Lopes - guitar, acoustic guitar, steel guitar
Lô Borges, Pat Metheny - guitar
Deodato - strings
Widor Santiago - saxophone
Kiko Continentino - piano, Fender Rhodes piano, harmonium
Herbie Hancock - piano
Tom Capone - synthesizer, programming
Gastao Villeroy - bass instrument
Lincoln Cheib - drums, percussion
Marco Lobo, Ronaldo Silva - percussion
 
EAC log
Exact Audio Copy V0.99 prebeta 5 from 4. May 2009
EAC extraction logfile from 15. May 2010, 15:54
Milton Nascimento / Pietá
Used drive : TSSTcorpDVD+-RW TS-U633A Adapter: 0 ID: 1
Read mode : Secure
Utilize accurate stream : Yes
Defeat audio cache : No
Make use of C2 pointers : Yes
Read offset correction : 6
Overread into Lead-In and Lead-Out : No
Fill up missing offset samples with silence : Yes
Delete leading and trailing silent blocks : No
Null samples used in CRC calculations : No
Used interface : Native Win32 interface for Win NT & 2000
Gap handling : Not detected, thus appended to previous track
Used output format : User Defined Encoder
Selected bitrate : 768 kBit/s
Quality : High
Add ID3 tag : No
Command line compressor : C:\Archivos de programa\Exact Audio Copy\FLAC\FLAC.EXE
Additional command line options : -6 -V -T "ARTIST=%a" -T "TITLE=%t" -T "ALBUM=%g" -T "DATE=%y" -T "TRACKNUMBER=%n" -T "GENRE=%m" -T "COMMENT=%e" %s -o %d
TOC of the extracted CD
Track | Start | Length | Start sector | End sector
---------------------------------------------------------
1 | 0:00.00 | 6:17.70 | 0 | 28344
2 | 6:17.70 | 5:14.57 | 28345 | 51951
3 | 11:32.52 | 5:32.03 | 51952 | 76854
4 | 17:04.55 | 6:02.10 | 76855 | 104014
5 | 23:06.65 | 3:59.70 | 104015 | 122009
6 | 27:06.60 | 3:57.32 | 122010 | 139816
7 | 31:04.17 | 3:55.00 | 139817 | 157441
8 | 34:59.17 | 3:58.50 | 157442 | 175341
9 | 38:57.67 | 4:51.03 | 175342 | 197169
10 | 43:48.70 | 3:35.42 | 197170 | 213336
11 | 47:24.37 | 4:44.65 | 213337 | 234701
12 | 52:09.27 | 4:11.65 | 234702 | 253591
13 | 56:21.17 | 2:46.73 | 253592 | 266114
14 | 59:08.15 | 4:17.55 | 266115 | 285444
15 | 63:25.70 | 3:49.05 | 285445 | 302624
16 | 67:15.00 | 4:52.47 | 302625 | 324571
Track 1
Filename C:\temp\Music\Milton Nascimento\Pietá\01. A feminina voz do cantor.wav
Peak level 88.4 %
Track quality 100.0 %
Test CRC 7DE39DF0
Copy CRC 7DE39DF0
Accurately ripped (confidence 2) [987E68B5]
Copy OK
Track 2
Filename C:\temp\Music\Milton Nascimento\Pietá\02. Casa aberta.wav
Peak level 99.3 %
Track quality 100.0 %
Test CRC D6ED95A5
Copy CRC D6ED95A5
Accurately ripped (confidence 2) [2E890F2F]
Copy OK
Track 3
Filename C:\temp\Music\Milton Nascimento\Pietá\03. Beleza e canção.wav
Peak level 97.9 %
Track quality 100.0 %
Test CRC D8F493C6
Copy CRC D8F493C6
Accurately ripped (confidence 2) [80CFB1B5]
Copy OK
Track 4
Filename C:\temp\Music\Milton Nascimento\Pietá\04. Tristesse.wav
Peak level 98.1 %
Track quality 100.0 %
Test CRC 166848B1
Copy CRC 166848B1
Accurately ripped (confidence 2) [9C66B5A3]
Copy OK
Track 5
Filename C:\temp\Music\Milton Nascimento\Pietá\05. Quem sabe isso quer dizer amor.wav
Peak level 99.2 %
Track quality 100.0 %
Test CRC 26CD18CD
Copy CRC 26CD18CD
Accurately ripped (confidence 2) [6A3F790F]
Copy OK
Track 6
Filename C:\temp\Music\Milton Nascimento\Pietá\06. Imagem e semelhança.wav
Peak level 99.2 %
Track quality 100.0 %
Test CRC 050B1155
Copy CRC 050B1155
Accurately ripped (confidence 2) [63875CA6]
Copy OK
Track 7
Filename C:\temp\Music\Milton Nascimento\Pietá\07. A lágrima e o rio.wav
Peak level 99.2 %
Track quality 100.0 %
Test CRC FEBD33A0
Copy CRC FEBD33A0
Accurately ripped (confidence 2) [BCEE51BF]
Copy OK
Track 8
Filename C:\temp\Music\Milton Nascimento\Pietá\08. Voa bicho.wav
Peak level 99.2 %
Track quality 100.0 %
Test CRC B71E77E5
Copy CRC B71E77E5
Accurately ripped (confidence 2) [F45C47B5]
Copy OK
Track 9
Filename C:\temp\Music\Milton Nascimento\Pietá\09. Outro lugar.wav
Peak level 99.2 %
Track quality 100.0 %
Test CRC E38A3A84
Copy CRC E38A3A84
Accurately ripped (confidence 2) [BE45EBE3]
Copy OK
Track 10
Filename C:\temp\Music\Milton Nascimento\Pietá\10. Às vezes Deus exagera.wav
Peak level 99.2 %
Track quality 100.0 %
Test CRC 4C69F7E5
Copy CRC 4C69F7E5
Accurately ripped (confidence 2) [2D1F6EC9]
Copy OK
Track 11
Filename C:\temp\Music\Milton Nascimento\Pietá\11. Cantaloupe Island.wav
Peak level 83.4 %
Track quality 100.0 %
Test CRC 2AFB3128
Copy CRC 2AFB3128
Accurately ripped (confidence 2) [7041C317]
Copy OK
Track 12
Filename C:\temp\Music\Milton Nascimento\Pietá\12. Pietá.wav
Peak level 99.2 %
Track quality 100.0 %
Test CRC C318289B
Copy CRC C318289B
Accurately ripped (confidence 2) [6EB29ECA]
Copy OK
Track 13
Filename C:\temp\Music\Milton Nascimento\Pietá\13. Beira-mar novo.wav
Peak level 82.4 %
Track quality 100.0 %
Test CRC 647F662F
Copy CRC 647F662F
Accurately ripped (confidence 2) [431E13B8]
Copy OK
Track 14
Filename C:\temp\Music\Milton Nascimento\Pietá\14. Meninos de Araçuaí.wav
Peak level 99.2 %
Track quality 100.0 %
Test CRC 66403510
Copy CRC 66403510
Accurately ripped (confidence 2) [13DD2C18]
Copy OK
Track 15
Filename C:\temp\Music\Milton Nascimento\Pietá\15. Boa noite.wav
Peak level 99.3 %
Track quality 100.0 %
Test CRC ABBCCA97
Copy CRC ABBCCA97
Accurately ripped (confidence 2) [830E5747]
Copy OK
Track 16
Filename C:\temp\Music\Milton Nascimento\Pietá\16. Vozes do vento.wav
Peak level 99.3 %
Track quality 99.9 %
Test CRC AC2006AA
Copy CRC AC2006AA
Accurately ripped (confidence 2) [3E053A53]
Copy OK
All tracks accurately ripped
No errors occurred
End of status report
 
Audiochecker log
AUDIOCHECKER v1.2 - by Dester - opdester@freemail.hu
~~~~~~~~~~~~~~~~~
01 -===- C:\Downloads\0 0 0 JDownloader 0.8\JDownloader\downloads\Milton Nascimento2005 Pieta.ape\01. A feminina voz do cantor.ape
Extracted successfully
Conclusion: This track looks like CDDA with probability 100%
02 -===- C:\Downloads\0 0 0 JDownloader 0.8\JDownloader\downloads\Milton Nascimento2005 Pieta.ape\02. Casa aberta.ape
Extracted successfully
Conclusion: This track looks like CDDA with probability 100%
03 -===- C:\Downloads\0 0 0 JDownloader 0.8\JDownloader\downloads\Milton Nascimento2005 Pieta.ape\03. Beleza e canção.ape
Extracted successfully
Conclusion: This track looks like CDDA with probability 100%
04 -===- C:\Downloads\0 0 0 JDownloader 0.8\JDownloader\downloads\Milton Nascimento2005 Pieta.ape\04. Tristesse.ape
Extracted successfully
Conclusion: This track looks like CDDA with probability 100%
05 -===- C:\Downloads\0 0 0 JDownloader 0.8\JDownloader\downloads\Milton Nascimento2005 Pieta.ape\05. Quem sabe isso quer dizer amor.ape
Extracted successfully
Conclusion: This track looks like CDDA with probability 100%
06 -===- C:\Downloads\0 0 0 JDownloader 0.8\JDownloader\downloads\Milton Nascimento2005 Pieta.ape\06. Imagem e semelhança.ape
Extracted successfully
Conclusion: This track looks like CDDA with probability 100%
07 -===- C:\Downloads\0 0 0 JDownloader 0.8\JDownloader\downloads\Milton Nascimento2005 Pieta.ape\07. A lágrima e o rio.ape
Extracted successfully
Conclusion: This track looks like CDDA with probability 100%
08 -===- C:\Downloads\0 0 0 JDownloader 0.8\JDownloader\downloads\Milton Nascimento2005 Pieta.ape\08. Voa bicho.ape
Extracted successfully
Conclusion: This track looks like CDDA with probability 100%
09 -===- C:\Downloads\0 0 0 JDownloader 0.8\JDownloader\downloads\Milton Nascimento2005 Pieta.ape\09. Outro lugar.ape
Extracted successfully
Conclusion: This track looks like CDDA with probability 100%
10 -===- C:\Downloads\0 0 0 JDownloader 0.8\JDownloader\downloads\Milton Nascimento2005 Pieta.ape\10. Às vezes Deus exagera.ape
Extracted successfully
Conclusion: This track looks like CDDA with probability 100%
11 -===- C:\Downloads\0 0 0 JDownloader 0.8\JDownloader\downloads\Milton Nascimento2005 Pieta.ape\11. Cantaloupe Island.ape
Extracted successfully
Conclusion: This track looks like CDDA with probability 100%
12 -===- C:\Downloads\0 0 0 JDownloader 0.8\JDownloader\downloads\Milton Nascimento2005 Pieta.ape\12. Pietá.ape
Extracted successfully
Conclusion: This track looks like CDDA with probability 100%
13 -===- C:\Downloads\0 0 0 JDownloader 0.8\JDownloader\downloads\Milton Nascimento2005 Pieta.ape\13. Beira-mar novo.ape
Extracted successfully
Conclusion: This track looks like CDDA with probability 100%
14 -===- C:\Downloads\0 0 0 JDownloader 0.8\JDownloader\downloads\Milton Nascimento2005 Pieta.ape\14. Meninos de Araçuaí.ape
Extracted successfully
Conclusion: This track looks like CDDA with probability 100%
15 -===- C:\Downloads\0 0 0 JDownloader 0.8\JDownloader\downloads\Milton Nascimento2005 Pieta.ape\15. Boa noite.ape
Extracted successfully
Conclusion: This track looks like CDDA with probability 100%
16 -===- C:\Downloads\0 0 0 JDownloader 0.8\JDownloader\downloads\Milton Nascimento2005 Pieta.ape\16. Vozes do vento.ape
Extracted successfully
Conclusion: This track looks like CDDA with probability 100%
 
cue file
REM GENRE Jazz
REM DATE 2005
REM DISCID E510E710
REM COMMENT "ExactAudioCopy v0.99pb5"
PERFORMER "Milton Nascimento"
TITLE "Pietá"
FILE "01. A feminina voz do cantor.ape" WAVE
TRACK 01 AUDIO
TITLE "A feminina voz do cantor"
PERFORMER "Milton Nascimento"
INDEX 01 00:00:00
FILE "02. Casa aberta.ape" WAVE
TRACK 02 AUDIO
TITLE "Casa aberta"
PERFORMER "Milton Nascimento"
INDEX 01 00:00:00
TRACK 03 AUDIO
TITLE "Beleza e canção"
PERFORMER "Milton Nascimento"
INDEX 00 00:00:00
FILE "03. Beleza e canção.ape" WAVE
INDEX 01 00:00:00
TRACK 04 AUDIO
TITLE "Tristesse"
PERFORMER "Milton Nascimento"
INDEX 00 05:46:18
FILE "04. Tristesse.ape" WAVE
INDEX 01 00:00:00
TRACK 05 AUDIO
TITLE "Quem sabe isso quer dizer amor"
PERFORMER "Milton Nascimento"
INDEX 00 90:14:15
FILE "05. Quem sabe isso quer dizer amor.ape" WAVE
INDEX 01 00:00:00
TRACK 06 AUDIO
TITLE "Imagem e semelhança"
PERFORMER "Milton Nascimento"
INDEX 00 94:12:05
FILE "06. Imagem e semelhança.ape" WAVE
INDEX 01 00:00:00
TRACK 07 AUDIO
TITLE "A lágrima e o rio"
PERFORMER "Milton Nascimento"
INDEX 00 80:12:10
FILE "07. A lágrima e o rio.ape" WAVE
INDEX 01 00:00:00
TRACK 08 AUDIO
TITLE "Voa bicho"
PERFORMER "Milton Nascimento"
INDEX 00 86:14:53
FILE "08. Voa bicho.ape" WAVE
INDEX 01 00:00:00
TRACK 09 AUDIO
TITLE "Outro lugar"
PERFORMER "Milton Nascimento"
INDEX 00 82:19:53
FILE "09. Outro lugar.ape" WAVE
INDEX 01 00:00:00
TRACK 10 AUDIO
TITLE "Às vezes Deus exagera"
PERFORMER "Milton Nascimento"
INDEX 00 78:21:03
FILE "10. Às vezes Deus exagera.ape" WAVE
INDEX 01 00:00:00
TRACK 11 AUDIO
TITLE "Cantaloupe Island"
PERFORMER "Milton Nascimento"
INDEX 00 73:29:00
FILE "11. Cantaloupe Island.ape" WAVE
INDEX 01 00:00:00
TRACK 12 AUDIO
TITLE "Pietá"
PERFORMER "Milton Nascimento"
INDEX 00 69:54:33
FILE "12. Pietá.ape" WAVE
INDEX 01 00:00:00
TRACK 13 AUDIO
TITLE "Beira-mar novo"
PERFORMER "Milton Nascimento"
INDEX 00 65:09:43
FILE "13. Beira-mar novo.ape" WAVE
INDEX 01 00:00:00
TRACK 14 AUDIO
TITLE "Meninos de Araçuaí"
PERFORMER "Milton Nascimento"
INDEX 00 50:57:53
FILE "14. Meninos de Araçuaí.ape" WAVE
INDEX 01 00:00:00
TRACK 15 AUDIO
TITLE "Boa noite"
PERFORMER "Milton Nascimento"
INDEX 00 58:10:55
FILE "15. Boa noite.ape" WAVE
INDEX 01 00:00:00
TRACK 16 AUDIO
TITLE "Vozes do vento"
PERFORMER "Milton Nascimento"
INDEX 00 53:52:00
FILE "16. Vozes do vento.ape" WAVE
INDEX 01 00:00:00
16:52
301
Нет комментариев. Ваш будет первым!