Поиск

(Vocal Jazz, Latin Jazz) [CD] Cyrille Aimee & Diego Figueiredo - Just the Two of Us - 2010 (Japan Edition), FLAC (tracks+.cue), lossless

(Vocal Jazz, Latin Jazz) [CD] Cyrille Aimee & Diego Figueiredo - Just the Two of Us - 2010 (Japan Edition), FLAC (tracks+.cue), lossless
Треклист:
Cyrille Aimee & Diego Figueiredo - Just the Two of Us
Жанр: Vocal Jazz, Latin Jazz
Носитель: CD
Страна-производитель диска (релиза): Япония
Год издания: 2010
Издатель (лейбл): Venus Records
Номер по каталогу: VHCD-78205
Страна исполнителя (группы): США
Аудиокодек: FLAC (*.flac)
Тип рипа: tracks+.cue
Битрейт аудио: lossless
Продолжительность: 48:04
Источник (релизер): badam (what)
Наличие сканов в содержимом раздачи: нет
Треклист:
01. Sunny Days (Aimee-Figueiredo) - 4:10
02. Tea for Two (Caesar-Youmans) - 4:54
03. Samois a Moi (Aimee-Figueiredo) - 3:33
04. Willow Weep for Me (Ronell) - 5:12
05. Just the Two of Us (Withers-Washington) - 5:01
06. Invitation (Kaper-Webster-Aimee) - 3:43
07. Midnight Sun (Hampton-Burke-Mercer) - 3:16
08. Morena Boca de Ouro (Barroso) - 5:21
09. Je Suis Seule Ce Soir (Durand-Noel-Casanova) - 2:18
10. Dos Gardenias (Carillo) - 4:03
11. Paper Moon (Harburg-Rose-Arlen) - 2:43
12. Samba em Preludio (DeMoraes-Powell-Duteil) - 3:50
Состав:
Cyrille Aimee - vocals
Diego Figueiredo - acoustic guitar
Recorded at Avatar Studios, New York on May 27-28, 2010.
 
Лог создания рипа
X Lossless Decoder version 20120609 (141.0)
XLD extraction logfile from 2012-07-05 21:54:07 -0400
Cyrille Aimee & Diego Figueiredo / Just The Two Of Us
Used drive : MATSHITA DVD-R UJ-868 (revision KB19)
Ripper mode : XLD Secure Ripper
Disable audio cache : OK for the drive with a cache less than 1375KiB
Make use of C2 pointers : NO
Read offset correction : 102
Max retry count : 100
Gap status : Analyzed, Appended (except HTOA)
TOC of the extracted CD
Track | Start | Length | Start sector | End sector
---------------------------------------------------------
1 | 00:00:00 | 04:09:48 | 0 | 18722
2 | 04:09:48 | 04:54:21 | 18723 | 40793
3 | 09:03:69 | 03:32:67 | 40794 | 56760
4 | 12:36:61 | 05:11:60 | 56761 | 80145
5 | 17:48:46 | 05:01:02 | 80146 | 102722
6 | 22:49:48 | 03:42:41 | 102723 | 119413
7 | 26:32:14 | 03:16:10 | 119414 | 134123
8 | 29:48:24 | 05:21:07 | 134124 | 158205
9 | 35:09:31 | 02:17:72 | 158206 | 168552
10 | 37:27:28 | 04:03:08 | 168553 | 186785
11 | 41:30:36 | 02:42:62 | 186786 | 198997
12 | 44:13:23 | 03:49:42 | 198998 | 216214
AccurateRip Summary (DiscID: 00169ae3-00d0ac70-9d0b420c)
Track 01 : OK (v1+v2, confidence 5/5)
Track 02 : OK (v1+v2, confidence 5/5)
Track 03 : OK (v1+v2, confidence 5/5)
Track 04 : OK (v1+v2, confidence 5/5)
Track 05 : OK (v1+v2, confidence 5/5)
Track 06 : OK (v1+v2, confidence 5/5)
Track 07 : OK (v1+v2, confidence 5/5)
Track 08 : OK (v1+v2, confidence 5/5)
Track 09 : OK (v1+v2, confidence 5/5)
Track 10 : OK (v1+v2, confidence 5/5)
Track 11 : OK (v1+v2, confidence 5/5)
Track 12 : OK (v1+v2, confidence 5/5)
->All tracks accurately ripped.
All Tracks
Album gain : -9.73 dB
Peak : 0.992279
Statistics
Read error : 0
Jitter error (maybe fixed) : 0
Retry sector count : 0
Damaged sector count : 0
Track 01
Filename : /Users/adamwechsler/Desktop/Cyrille AimeМЃe/Just The Two of Us/Cyrille Aimee & Diego Figueiredo - Just The Two Of Us (Unknown Year) [FLAC]/01 Sunny Days
Cyrille Aimee & Diego Figueiredo - Just The Two Of Us (Unknown Year) [FLAC]/01 Sunny Days.flac
Pre-gap length : 00:02:00
Track gain : -8.91 dB
Peak : 0.981445
CRC32 hash (test run) : 6C9B8B01
CRC32 hash : 6C9B8B01
CRC32 hash (skip zero) : 7B91A281
AccurateRip v1 signature : 30AB58A2
AccurateRip v2 signature : 05817351
->Accurately ripped (v1+v2, confidence 2+3/5)
Statistics
Read error : 0
Jitter error (maybe fixed) : 0
Retry sector count : 0
Damaged sector count : 0
Track 02
Filename : /Users/adamwechsler/Desktop/Cyrille AimeМЃe/Just The Two of Us/Cyrille Aimee & Diego Figueiredo - Just The Two Of Us (Unknown Year) [FLAC]/02 Tea For Two
Cyrille Aimee & Diego Figueiredo - Just The Two Of Us (Unknown Year) [FLAC]/02 Tea For Two.flac
Pre-gap length : 00:02:45
Track gain : -9.64 dB
Peak : 0.979401
CRC32 hash (test run) : 261D0D7C
CRC32 hash : 261D0D7C
CRC32 hash (skip zero) : 772BE6A7
AccurateRip v1 signature : 26A0567C
AccurateRip v2 signature : A686A4A8
->Accurately ripped (v1+v2, confidence 2+3/5)
Statistics
Read error : 0
Jitter error (maybe fixed) : 0
Retry sector count : 0
Damaged sector count : 0
Track 03
Filename : /Users/adamwechsler/Desktop/Cyrille AimeМЃe/Just The Two of Us/Cyrille Aimee & Diego Figueiredo - Just The Two Of Us (Unknown Year) [FLAC]/03 Samois A Moi
Cyrille Aimee & Diego Figueiredo - Just The Two Of Us (Unknown Year) [FLAC]/03 Samois A Moi.flac
Pre-gap length : 00:02:45
Track gain : -9.71 dB
Peak : 0.974792
CRC32 hash (test run) : FA4F4DD3
CRC32 hash : FA4F4DD3
CRC32 hash (skip zero) : 07B57CF8
AccurateRip v1 signature : 94D170C7
AccurateRip v2 signature : C40CC606
->Accurately ripped (v1+v2, confidence 2+3/5)
Statistics
Read error : 0
Jitter error (maybe fixed) : 0
Retry sector count : 0
Damaged sector count : 0
Track 04
Filename : /Users/adamwechsler/Desktop/Cyrille AimeМЃe/Just The Two of Us/Cyrille Aimee & Diego Figueiredo - Just The Two Of Us (Unknown Year) [FLAC]/04 Willow Weep For Me
Cyrille Aimee & Diego Figueiredo - Just The Two Of Us (Unknown Year) [FLAC]/04 Willow Weep For Me.flac
Pre-gap length : 00:02:45
Track gain : -10.24 dB
Peak : 0.987274
CRC32 hash (test run) : C20BB227
CRC32 hash : C20BB227
CRC32 hash (skip zero) : ABAC6C53
AccurateRip v1 signature : 3DEF6D8B
AccurateRip v2 signature : 76C3B65C
->Accurately ripped (v1+v2, confidence 2+3/5)
Statistics
Read error : 0
Jitter error (maybe fixed) : 0
Retry sector count : 0
Damaged sector count : 0
Track 05
Filename : /Users/adamwechsler/Desktop/Cyrille AimeМЃe/Just The Two of Us/Cyrille Aimee & Diego Figueiredo - Just The Two Of Us (Unknown Year) [FLAC]/05 Just The Two Of Us
Cyrille Aimee & Diego Figueiredo - Just The Two Of Us (Unknown Year) [FLAC]/05 Just The Two Of Us.flac
Pre-gap length : 00:02:45
Track gain : -9.76 dB
Peak : 0.986847
CRC32 hash (test run) : 368372F6
CRC32 hash : 368372F6
CRC32 hash (skip zero) : BC00712E
AccurateRip v1 signature : A5398BF5
AccurateRip v2 signature : CD53F24C
->Accurately ripped (v1+v2, confidence 2+3/5)
Statistics
Read error : 0
Jitter error (maybe fixed) : 0
Retry sector count : 0
Damaged sector count : 0
Track 06
Filename : /Users/adamwechsler/Desktop/Cyrille AimeМЃe/Just The Two of Us/Cyrille Aimee & Diego Figueiredo - Just The Two Of Us (Unknown Year) [FLAC]/06 Invitation
Cyrille Aimee & Diego Figueiredo - Just The Two Of Us (Unknown Year) [FLAC]/06 Invitation.flac
Pre-gap length : 00:02:45
Track gain : -9.49 dB
Peak : 0.984955
CRC32 hash (test run) : 567FAA41
CRC32 hash : 567FAA41
CRC32 hash (skip zero) : 5325FDDD
AccurateRip v1 signature : 164F3BBA
AccurateRip v2 signature : EDEE8596
->Accurately ripped (v1+v2, confidence 2+3/5)
Statistics
Read error : 0
Jitter error (maybe fixed) : 0
Retry sector count : 0
Damaged sector count : 0
Track 07
Filename : /Users/adamwechsler/Desktop/Cyrille AimeМЃe/Just The Two of Us/Cyrille Aimee & Diego Figueiredo - Just The Two Of Us (Unknown Year) [FLAC]/07 Midnight Sun
Cyrille Aimee & Diego Figueiredo - Just The Two Of Us (Unknown Year) [FLAC]/07 Midnight Sun.flac
Pre-gap length : 00:02:45
Track gain : -9.78 dB
Peak : 0.988953
CRC32 hash (test run) : B2E150CB
CRC32 hash : B2E150CB
CRC32 hash (skip zero) : BF84B7FC
AccurateRip v1 signature : C709B963
AccurateRip v2 signature : 5B40F324
->Accurately ripped (v1+v2, confidence 2+3/5)
Statistics
Read error : 0
Jitter error (maybe fixed) : 0
Retry sector count : 0
Damaged sector count : 0
Track 08
Filename : /Users/adamwechsler/Desktop/Cyrille AimeМЃe/Just The Two of Us/Cyrille Aimee & Diego Figueiredo - Just The Two Of Us (Unknown Year) [FLAC]/08 Morena Boca De Ouro
Cyrille Aimee & Diego Figueiredo - Just The Two Of Us (Unknown Year) [FLAC]/08 Morena Boca De Ouro.flac
Pre-gap length : 00:02:45
Track gain : -9.59 dB
Peak : 0.981995
CRC32 hash (test run) : 52F8F492
CRC32 hash : 52F8F492
CRC32 hash (skip zero) : C9798ED3
AccurateRip v1 signature : 8933911D
AccurateRip v2 signature : 13E03A89
->Accurately ripped (v1+v2, confidence 2+3/5)
Statistics
Read error : 0
Jitter error (maybe fixed) : 0
Retry sector count : 0
Damaged sector count : 0
Track 09
Filename : /Users/adamwechsler/Desktop/Cyrille AimeМЃe/Just The Two of Us/Cyrille Aimee & Diego Figueiredo - Just The Two Of Us (Unknown Year) [FLAC]/09 Je Suis Seule Ce Soir
Cyrille Aimee & Diego Figueiredo - Just The Two Of Us (Unknown Year) [FLAC]/09 Je Suis Seule Ce Soir.flac
Pre-gap length : 00:02:45
Track gain : -10.00 dB
Peak : 0.992279
CRC32 hash (test run) : 999161B0
CRC32 hash : 999161B0
CRC32 hash (skip zero) : 9F67AAE3
AccurateRip v1 signature : BC19A283
AccurateRip v2 signature : 0FB74BCA
->Accurately ripped (v1+v2, confidence 2+3/5)
Statistics
Read error : 0
Jitter error (maybe fixed) : 0
Retry sector count : 0
Damaged sector count : 0
Track 10
Filename : /Users/adamwechsler/Desktop/Cyrille AimeМЃe/Just The Two of Us/Cyrille Aimee & Diego Figueiredo - Just The Two Of Us (Unknown Year) [FLAC]/10 Dos Gardenias
Cyrille Aimee & Diego Figueiredo - Just The Two Of Us (Unknown Year) [FLAC]/10 Dos Gardenias.flac
Pre-gap length : 00:02:45
Track gain : -9.66 dB
Peak : 0.991913
CRC32 hash (test run) : 4EF3656E
CRC32 hash : 4EF3656E
CRC32 hash (skip zero) : 2352A074
AccurateRip v1 signature : 5A38DC62
AccurateRip v2 signature : 29D121A9
->Accurately ripped (v1+v2, confidence 2+3/5)
Statistics
Read error : 0
Jitter error (maybe fixed) : 0
Retry sector count : 0
Damaged sector count : 0
Track 11
Filename : /Users/adamwechsler/Desktop/Cyrille AimeМЃe/Just The Two of Us/Cyrille Aimee & Diego Figueiredo - Just The Two Of Us (Unknown Year) [FLAC]/11 Paper Moon
Cyrille Aimee & Diego Figueiredo - Just The Two Of Us (Unknown Year) [FLAC]/11 Paper Moon.flac
Pre-gap length : 00:02:45
Track gain : -9.89 dB
Peak : 0.984589
CRC32 hash (test run) : 2CCF042D
CRC32 hash : 2CCF042D
CRC32 hash (skip zero) : 40B4D847
AccurateRip v1 signature : DA18AA13
AccurateRip v2 signature : 5153484A
->Accurately ripped (v1+v2, confidence 2+3/5)
Statistics
Read error : 0
Jitter error (maybe fixed) : 0
Retry sector count : 0
Damaged sector count : 0
Track 12
Filename : /Users/adamwechsler/Desktop/Cyrille AimeМЃe/Just The Two of Us/Cyrille Aimee & Diego Figueiredo - Just The Two Of Us (Unknown Year) [FLAC]/12 Samba Em Preludio
Cyrille Aimee & Diego Figueiredo - Just The Two Of Us (Unknown Year) [FLAC]/12 Samba Em Preludio.flac
Pre-gap length : 00:02:45
Track gain : -9.81 dB
Peak : 0.985291
CRC32 hash (test run) : 1E732CCB
CRC32 hash : 1E732CCB
CRC32 hash (skip zero) : 71481541
AccurateRip v1 signature : C3A60CCB
AccurateRip v2 signature : BD562972
->Accurately ripped (v1+v2, confidence 2+3/5)
Statistics
Read error : 0
Jitter error (maybe fixed) : 0
Retry sector count : 0
Damaged sector count : 0
No errors occurred
End of status report
 
Содержание индексной карты (.CUE)
TITLE "Just the Two of Us"
PERFORMER "Cyrille Aimee & Diego Figueiredo"
REM GENRE "Jazz"
REM DATE "2010"
REM DISCID 9D0B420C
REM REPLAYGAIN_ALBUM_GAIN -9.73 dB
REM REPLAYGAIN_ALBUM_PEAK 0.992279
FILE "01 - Sunny Days.flac" WAVE
TRACK 01 AUDIO
TITLE "Sunny Days"
REM REPLAYGAIN_TRACK_GAIN -8.91 dB
REM REPLAYGAIN_TRACK_PEAK 0.981445
INDEX 01 00:00:00
TRACK 02 AUDIO
TITLE "Tea for Two"
REM REPLAYGAIN_TRACK_GAIN -9.64 dB
REM REPLAYGAIN_TRACK_PEAK 0.979401
INDEX 00 04:07:03
FILE "02 - Tea for Two.flac" WAVE
INDEX 01 00:00:00
TRACK 03 AUDIO
TITLE "Samois a Moi"
REM REPLAYGAIN_TRACK_GAIN -9.71 dB
REM REPLAYGAIN_TRACK_PEAK 0.974792
INDEX 00 04:51:51
FILE "03 - Samois a Moi.flac" WAVE
INDEX 01 00:00:00
TRACK 04 AUDIO
TITLE "Willow Weep for Me"
REM REPLAYGAIN_TRACK_GAIN -10.24 dB
REM REPLAYGAIN_TRACK_PEAK 0.987274
INDEX 00 03:30:22
FILE "04 - Willow Weep for Me.flac" WAVE
INDEX 01 00:00:00
TRACK 05 AUDIO
TITLE "Just the Two of Us"
REM REPLAYGAIN_TRACK_GAIN -9.76 dB
REM REPLAYGAIN_TRACK_PEAK 0.986847
INDEX 00 05:09:15
FILE "05 - Just the Two of Us.flac" WAVE
INDEX 01 00:00:00
TRACK 06 AUDIO
TITLE "Invitation"
REM REPLAYGAIN_TRACK_GAIN -9.49 dB
REM REPLAYGAIN_TRACK_PEAK 0.984955
INDEX 00 04:58:32
FILE "06 - Invitation.flac" WAVE
INDEX 01 00:00:00
TRACK 07 AUDIO
TITLE "Midnight Sun"
REM REPLAYGAIN_TRACK_GAIN -9.78 dB
REM REPLAYGAIN_TRACK_PEAK 0.988953
INDEX 00 03:39:71
FILE "07 - Midnight Sun.flac" WAVE
INDEX 01 00:00:00
TRACK 08 AUDIO
TITLE "Morena Boca de Ouro"
REM REPLAYGAIN_TRACK_GAIN -9.59 dB
REM REPLAYGAIN_TRACK_PEAK 0.981995
INDEX 00 03:13:40
FILE "08 - Morena Boca de Ouro.flac" WAVE
INDEX 01 00:00:00
TRACK 09 AUDIO
TITLE "Je Suis Seule Ce Soir"
REM REPLAYGAIN_TRACK_GAIN -10.00 dB
REM REPLAYGAIN_TRACK_PEAK 0.992279
INDEX 00 05:18:37
FILE "09 - Je Suis Seule Ce Soir.flac" WAVE
INDEX 01 00:00:00
TRACK 10 AUDIO
TITLE "Dos Gardenias"
REM REPLAYGAIN_TRACK_GAIN -9.66 dB
REM REPLAYGAIN_TRACK_PEAK 0.991913
INDEX 00 02:15:27
FILE "10 - Dos Gardenias.flac" WAVE
INDEX 01 00:00:00
TRACK 11 AUDIO
TITLE "Paper Moon"
REM REPLAYGAIN_TRACK_GAIN -9.89 dB
REM REPLAYGAIN_TRACK_PEAK 0.984589
INDEX 00 04:00:38
FILE "11 - Paper Moon.flac" WAVE
INDEX 01 00:00:00
TRACK 12 AUDIO
TITLE "Samba em Preludio"
REM REPLAYGAIN_TRACK_GAIN -9.81 dB
REM REPLAYGAIN_TRACK_PEAK 0.985291
INDEX 00 02:40:17
FILE "12 - Samba em Preludio.flac" WAVE
INDEX 01 00:00:00
 
Отчет CUETools
[CUETools log; Date: 15.06.2015 17:52:33; Version: 2.1.5]
[CTDB TOCID: KP2CrlvJtsePIkbmTQ2dnEWblUo-] found.
Track | CTDB Status
1 | (6/6) Accurately ripped
2 | (6/6) Accurately ripped
3 | (6/6) Accurately ripped
4 | (6/6) Accurately ripped
5 | (6/6) Accurately ripped
6 | (6/6) Accurately ripped
7 | (6/6) Accurately ripped
8 | (6/6) Accurately ripped
9 | (6/6) Accurately ripped
10 | (6/6) Accurately ripped
11 | (6/6) Accurately ripped
12 | (6/6) Accurately ripped
[AccurateRip ID: 00169ae3-00d0ac70-9d0b420c] found.
Track [ CRC | V2 ] Status
01 [30ab58a2|05817351] (02+09/11) Accurately ripped
02 [26a0567c|a686a4a8] (02+09/11) Accurately ripped
03 [94d170c7|c40cc606] (02+09/11) Accurately ripped
04 [3def6d8b|76c3b65c] (02+09/11) Accurately ripped
05 [a5398bf5|cd53f24c] (02+09/11) Accurately ripped
06 [164f3bba|edee8596] (02+09/11) Accurately ripped
07 [c709b963|5b40f324] (02+09/11) Accurately ripped
08 [8933911d|13e03a89] (02+09/11) Accurately ripped
09 [bc19a283|0fb74bca] (02+09/11) Accurately ripped
10 [5a38dc62|29d121a9] (02+09/11) Accurately ripped
11 [da18aa13|5153484a] (02+09/11) Accurately ripped
12 [c3a60ccb|bd562972] (02+09/11) Accurately ripped
Track Peak [ CRC32 ] [W/O NULL]
-- 99,2 [65870A7F] [6973F8A6]
01 98,1 [6C9B8B01] [7B91A281]
02 97,9 [261D0D7C] [772BE6A7]
03 97,4 [FA4F4DD3] [07B57CF8]
04 98,7 [C20BB227] [ABAC6C53]
05 98,6 [368372F6] [BC00712E]
06 98,4 [567FAA41] [5325FDDD]
07 98,8 [B2E150CB] [BF84B7FC]
08 98,2 [52F8F492] [C9798ED3]
09 99,2 [999161B0] [9F67AAE3]
10 99,1 [4EF3656E] [2352A074]
11 98,4 [2CCF042D] [40B4D847]
12 98,5 [1E732CCB] [71481541]
 
Об альбоме (сборнике)
Known for his keen eye (and ear) to spot new talent, Venus Record's producer Tetsuo Hara scored another coup by releasing the debut CD by the young and talented duo of French-born singer Cyrille Aimée and Brazilian guitarist Diego Figueiredo.
Aimée was born in a suburb of Paris to a French father and a Dominican mother, and began singing the so-called French Gypsy jazz. She moved to the United States in 2005 to attend a conservatory at State University of New York Purchase and studied under Pete Malinverni, Jon Faddis and Jimmy Greene. She won the Montreux Festival Jazz Voice Competition in 2007 and was a finalist in the prestigious Thelonious Monk Vocal Competition of 2010.
Diego Figueiredo was born in the state of Sao Paulo, Brazil, and began playing the guitar professionally at age 15. He won a music contest in 2009 and obtained a scholarship at Berklee School of Music. Winner of numerous awards, he moved to New York in 2006. His incredible technique and creativity have been praised by Geroge Benson and Pat Metheny.
Now, these two young geniuses met in New York and formed a very strong duo. Covering a large musical territory from jazz standards, pops, samba, French chanson and Cuban bolero to original compositions, Aimée's expressive vocals and Figueiredo's virtuosic guitar playing combine to create a unique aesthetic that is upbeat and very attractive.
A very nice, cross-cultural vocal-guitar duo of the 21st century! Recommended!
19:04
253
Нет комментариев. Ваш будет первым!