Поиск

(Vocal Jazz) Kat Edmonson - Take to the Sky - 2009, FLAC (tracks+.cue), lossless

(Vocal Jazz) Kat Edmonson - Take to the Sky - 2009, FLAC (tracks+.cue), lossless
Треклист:
Kat Edmonson - Take to the Sky
Жанр: Vocal Jazz
Год выпуска : 2009
Лейбл: Convivium
Аудио кодек: FLAC
Тип рипа: tracks+.cue
Битрейт аудио: lossless
Продолжительность: 00:43:12
Рип: What CD


01. Summertime (5:12)
02. Just Like Heaven (4:12)
03. Night and Day (3:53)
04. Charade (4:19)
05. Lovefool (4:04)
06. Angel Eyes (5:13)
07. Just One Of Those Things (2:30)
08. One Fine Day (4:58)
09. (Just Like) Starting Over (5:09)
10. Spring Can Really Hang You Up The Most (3:43)

 
EAC
Exact Audio Copy V0.99 prebeta 5 from 4. May 2009
EAC extraction logfile from 6. November 2009, 10:28
Kat Edmonson / Take to the Sky
Used drive : TSSTcorpDVD-ROM TS-H353B Adapter: 1 ID: 0
Read mode : Secure
Utilize accurate stream : Yes
Defeat audio cache : Yes
Make use of C2 pointers : No
Read offset correction : 6
Overread into Lead-In and Lead-Out : No
Fill up missing offset samples with silence : Yes
Delete leading and trailing silent blocks : No
Null samples used in CRC calculations : No
Used interface : Native Win32 interface for Win NT & 2000
Gap handling : Appended to previous track
Used output format : User Defined Encoder
Selected bitrate : 768 kBit/s
Quality : High
Add ID3 tag : No
Command line compressor : C:\Program Files\Exact Audio Copy\FLAC\FLAC.EXE
Additional command line options : -6 -V -T "ARTIST=%a" -T "TITLE=%t" -T "ALBUM=%g" -T "DATE=%y" -T "TRACKNUMBER=%n" -T "GENRE=%m" -T "COMMENT=%e" %s -o %d
TOC of the extracted CD
Track | Start | Length | Start sector | End sector
---------------------------------------------------------
1 | 0:00.00 | 5:12.22 | 0 | 23421
2 | 5:12.22 | 4:12.15 | 23422 | 42336
3 | 9:24.37 | 3:52.41 | 42337 | 59777
4 | 13:17.03 | 4:19.21 | 59778 | 79223
5 | 17:36.24 | 4:03.59 | 79224 | 97507
6 | 21:40.08 | 5:12.68 | 97508 | 120975
7 | 26:53.01 | 2:29.42 | 120976 | 132192
8 | 29:22.43 | 4:58.12 | 132193 | 154554
9 | 34:20.55 | 5:08.52 | 154555 | 177706
10 | 39:29.32 | 3:42.63 | 177707 | 194419
Track 1
Filename C:\What.CD\Kat Edmonson - 2009 - Take to the Sky [FLAC]\01 - Summertime.wav
Pre-gap length 0:00:02.00
Peak level 99.7 %
Track quality 100.0 %
Test CRC 2E261EE6
Copy CRC 2E261EE6
Accurately ripped (confidence 2) [12F398A5]
Copy OK
Track 2
Filename C:\What.CD\Kat Edmonson - 2009 - Take to the Sky [FLAC]\02 - Just Like Heaven.wav
Pre-gap length 0:00:02.31
Peak level 99.7 %
Track quality 100.0 %
Test CRC 4F8891CF
Copy CRC 4F8891CF
Accurately ripped (confidence 2) [B7049B10]
Copy OK
Track 3
Filename C:\What.CD\Kat Edmonson - 2009 - Take to the Sky [FLAC]\03 - Night and Day.wav
Pre-gap length 0:00:02.12
Peak level 99.7 %
Track quality 100.0 %
Test CRC AFEC85E2
Copy CRC AFEC85E2
Accurately ripped (confidence 2) [BAFC8BFA]
Copy OK
Track 4
Filename C:\What.CD\Kat Edmonson - 2009 - Take to the Sky [FLAC]\04 - Charade.wav
Pre-gap length 0:00:01.71
Peak level 99.7 %
Track quality 100.0 %
Test CRC 662073E5
Copy CRC 662073E5
Accurately ripped (confidence 2) [AF1EFB4D]
Copy OK
Track 5
Filename C:\What.CD\Kat Edmonson - 2009 - Take to the Sky [FLAC]\05 - Lovefool.wav
Pre-gap length 0:00:02.02
Peak level 99.7 %
Track quality 100.0 %
Test CRC A3B01FDD
Copy CRC A3B01FDD
Accurately ripped (confidence 2) [0F4A2306]
Copy OK
Track 6
Filename C:\What.CD\Kat Edmonson - 2009 - Take to the Sky [FLAC]\06 - Angel Eyes.wav
Pre-gap length 0:00:01.59
Peak level 99.7 %
Track quality 100.0 %
Test CRC 02556F9C
Copy CRC 02556F9C
Accurately ripped (confidence 2) [CF07EC0E]
Copy OK
Track 7
Filename C:\What.CD\Kat Edmonson - 2009 - Take to the Sky [FLAC]\07 - Just One Of Those Things.wav
Pre-gap length 0:00:02.19
Peak level 99.7 %
Track quality 100.0 %
Test CRC C3AF5F31
Copy CRC C3AF5F31
Accurately ripped (confidence 2) [79D4CA1B]
Copy OK
Track 8
Filename C:\What.CD\Kat Edmonson - 2009 - Take to the Sky [FLAC]\08 - One Fine Day.wav
Pre-gap length 0:00:02.23
Peak level 99.7 %
Track quality 100.0 %
Test CRC 092F9664
Copy CRC 092F9664
Accurately ripped (confidence 2) [595D7295]
Copy OK
Track 9
Filename C:\What.CD\Kat Edmonson - 2009 - Take to the Sky [FLAC]\09 - (Just Like) Starting Over.wav
Pre-gap length 0:00:02.64
Peak level 99.7 %
Track quality 100.0 %
Test CRC A4199CF1
Copy CRC A4199CF1
Accurately ripped (confidence 2) [F34340B5]
Copy OK
Track 10
Filename C:\What.CD\Kat Edmonson - 2009 - Take to the Sky [FLAC]\10 - Spring Can Really Hang You Up The Most.wav
Pre-gap length 0:00:29.49
Peak level 75.9 %
Track quality 99.9 %
Test CRC 8AB68133
Copy CRC 8AB68133
Accurately ripped (confidence 2) [82D15BD3]
Copy OK
All tracks accurately ripped
No errors occurred
End of status report
 
CUE
REM GENRE Jazz
REM DATE 2009
REM DISCID 7E0A200A
REM COMMENT "ExactAudioCopy v0.99pb5"
PERFORMER "Kat Edmonson"
TITLE "Take to the Sky"
FILE "01 - Summertime.wav" WAVE
TRACK 01 AUDIO
TITLE "Summertime"
PERFORMER "Kat Edmonson"
INDEX 01 00:00:00
TRACK 02 AUDIO
TITLE "Just Like Heaven"
PERFORMER "Kat Edmonson"
INDEX 00 05:09:66
FILE "02 - Just Like Heaven.wav" WAVE
INDEX 01 00:00:00
TRACK 03 AUDIO
TITLE "Night and Day"
PERFORMER "Kat Edmonson"
INDEX 00 04:10:03
FILE "03 - Night and Day.wav" WAVE
INDEX 01 00:00:00
TRACK 04 AUDIO
TITLE "Charade"
PERFORMER "Kat Edmonson"
INDEX 00 03:50:45
FILE "04 - Charade.wav" WAVE
INDEX 01 00:00:00
TRACK 05 AUDIO
TITLE "Lovefool"
PERFORMER "Kat Edmonson"
INDEX 00 04:17:19
FILE "05 - Lovefool.wav" WAVE
INDEX 01 00:00:00
TRACK 06 AUDIO
TITLE "Angel Eyes"
PERFORMER "Kat Edmonson"
INDEX 00 04:02:00
FILE "06 - Angel Eyes.wav" WAVE
INDEX 01 00:00:00
TRACK 07 AUDIO
TITLE "Just One Of Those Things"
PERFORMER "Kat Edmonson"
INDEX 00 05:10:49
FILE "07 - Just One Of Those Things.wav" WAVE
INDEX 01 00:00:00
TRACK 08 AUDIO
TITLE "One Fine Day"
PERFORMER "Kat Edmonson"
INDEX 00 02:27:19
FILE "08 - One Fine Day.wav" WAVE
INDEX 01 00:00:00
TRACK 09 AUDIO
TITLE "(Just Like) Starting Over"
PERFORMER "Kat Edmonson"
INDEX 00 04:55:23
FILE "09 - (Just Like) Starting Over.wav" WAVE
INDEX 01 00:00:00
TRACK 10 AUDIO
TITLE "Spring Can Really Hang You Up The Most"
PERFORMER "Kat Edmonson"
INDEX 00 04:39:03
FILE "10 - Spring Can Really Hang You Up The Most.wav" WAVE
INDEX 01 00:00:00

Kat Edmonson - Vocals
Donald Edwards - Drums
John Ellis and His SDB - Clarinet (Bass), Sax (Tenor)
Chris Lovejoy - Percussion
Kevin Lovejoy - Piano, Arranger, Producer, Art Direction
Eric Revis - Bass
Ron Westray - Trombone, Euphonium
По всем вопросам пишите личное сообщение пользователю M0p94ok.
12:58
475
Нет комментариев. Ваш будет первым!