Поиск

(Vocal Jazz) Julie London - The End Of The World &The Wonderful World Of (Два альбома)- 2007, FLAC (image+.cue), lossless

(Vocal Jazz) Julie London - The End Of The World &The Wonderful World Of (Два альбома)- 2007, FLAC (image+.cue), lossless
Треклист:
THE END OF THE WORLD
THE WONDERFUL WORLD OF
Жанр: Vocal Jazz / Страна: USA
Страна-производитель диска: EU / Год издания: 2007
Издатель (лейбл): Capitol/EMI / Номер по каталогу: 0946 391784 2 1
Аудиокодек: FLAC (*.flac) / Битрейт аудио: lossless
Тип рипа: image+.cue / Источник (релизер): мой рип
Продолжительность: 1:03:10 / сканы : 600dpi
tracks:
1 The End of the World Dee, Kent 2:47
2 I Wanna Be Around Mercer, Vimmerstadt 2:00
3 Call Me Irresponsible Cahn, VanHeusen 2:48
4 Our Day Will ComeGarson, Hilliard 2:22
5 I Left My Heart in San Francisco Cory, Cross 2:48
6 Fly Me to the Moon Howard 2:34
7 Days of Wine and Roses Mancini, Mercer 2:53
8 I Remember You Mercer, Schertzinger 2:36
9 My Coloring Book Ebb, Kander 3:32
10 Chances Are Allen, Stillman 3:00
11 Desafinado(Slightly Out Of Tune) Cavanaugh, Hendricks, Jobim, Mendonca 2:06
12 The Good Life Distel, Reardon 2:54
13 I'm Coming Back To You Kent, Warren 2:23
14 Soft Summer Breeze Heywood, Spencer 2:14
15 Can't Get Used to Losing You Pomus, Shuman 2:23
16 A Taste of Honey Marlow, Scott 3:22
17 Little Things Mean a Lot Lindeman, Stutz 2:56
18 In the Still of the Night Porter 2:46
19 Love For Sale Porter 3:05
20 When Snowflakes Fall in the Summer Mann, Weil 1:49
21 How Can I Make Him Love Me ? Pomus, Shuman 1:59
22 Say Wonderful Things Green, Newell 2:27
23 Guilty Heart De Vorzon, Haskell, Perry 2:23
24 I Love You Mancini, Stillman 2:12

Обладательница страстного, бархатного и сексуального голоса
Джули Лондон была очень популярна в 50-е годы прошлого столетия.
Не обладая диапазоном Эллы Фицджеральд или Сары Вон,
она брала слушателя тонкостью, сдержанностью, мягкостью своего пения.
Певица и актриса, она снималась в кино с такими известными актерами
как Грегори Пек и Рок Хадсон.
Релиз "Два в Одном",предлагаемый вашему вниманию, включает два
альбома Джули,записанные в 1963 году
 
Лог создания рипа
X Lossless Decoder version 20120407 (140.0)
XLD extraction logfile from 2012-04-30 03:23:00 +0300
Julie London / Аудио-CD
Used drive : MATSHITA DVD-R UJ-898 (revision HC09)
Ripper mode : XLD Secure Ripper
Disable audio cache : OK for the drive with a cache less than 1375KiB
Make use of C2 pointers : NO
Read offset correction : 102
Max retry count : 20
Gap status : Analyzed, Appended
TOC of the extracted CD
Track | Start | Length | Start sector | End sector
---------------------------------------------------------
1 | 00:00:00 | 02:49:42 | 0 | 12716
2 | 02:49:42 | 02:01:62 | 12717 | 21853
3 | 04:51:29 | 02:52:17 | 21854 | 34770
4 | 07:43:46 | 02:24:09 | 34771 | 45579
5 | 10:07:55 | 02:52:10 | 45580 | 58489
6 | 12:59:65 | 02:37:64 | 58490 | 70328
7 | 15:37:54 | 02:54:58 | 70329 | 83436
8 | 18:32:37 | 02:38:57 | 83437 | 95343
9 | 21:11:19 | 03:35:46 | 95344 | 111514
10 | 24:46:65 | 03:06:28 | 111515 | 125492
11 | 27:53:18 | 02:08:06 | 125493 | 135098
12 | 30:01:24 | 02:59:44 | 135099 | 148567
13 | 33:00:68 | 02:21:71 | 148568 | 159213
14 | 35:22:64 | 02:13:66 | 159214 | 169254
15 | 37:36:55 | 02:22:48 | 169255 | 179952
16 | 39:59:28 | 03:22:55 | 179953 | 195157
17 | 43:22:08 | 02:56:49 | 195158 | 208406
18 | 46:18:57 | 02:46:55 | 208407 | 220911
19 | 49:05:37 | 03:06:11 | 220912 | 234872
20 | 52:11:48 | 01:51:15 | 234873 | 243212
21 | 54:02:63 | 01:56:59 | 243213 | 251971
22 | 55:59:47 | 02:28:21 | 251972 | 263092
23 | 58:27:68 | 02:25:74 | 263093 | 274041
24 | 60:53:67 | 02:16:63 | 274042 | 284304
AccurateRip Summary
Track 01 : OK (confidence 3)
Track 02 : OK (confidence 3)
Track 03 : OK (confidence 3)
Track 04 : OK (confidence 3)
Track 05 : OK (confidence 3)
Track 06 : OK (confidence 3)
Track 07 : OK (confidence 3)
Track 08 : OK (confidence 3)
Track 09 : OK (confidence 3)
Track 10 : OK (confidence 3)
Track 11 : OK (confidence 3)
Track 12 : OK (confidence 3)
Track 13 : OK (confidence 4)
Track 14 : OK (confidence 4)
Track 15 : OK (confidence 4)
Track 16 : OK (confidence 4)
Track 17 : OK (confidence 4)
Track 18 : OK (confidence 4)
Track 19 : OK (confidence 4)
Track 20 : OK (confidence 4)
Track 21 : OK (confidence 4)
Track 22 : OK (confidence 4)
Track 23 : OK (confidence 4)
Track 24 : OK (confidence 4)
->All tracks accurately ripped.
All Tracks
Filename : /Users/macuser/Music/myRips/julie london-the end of the world & the wonderful world of/01 Julie London - The End of the World .flac
Album gain : -1.98 dB
Peak : 0.997131
CRC32 hash (test run) : 4F77067B
CRC32 hash : 4F77067B
CRC32 hash (skip zero) : 37E6E9E7
Statistics
Read error : 0
Jitter error (maybe fixed) : 0
Retry sector count : 0
Damaged sector count : 0
Track 01
Pre-gap length : 00:02:00
Track gain : -2.83 dB
Peak : 0.752136
CRC32 hash (test run) : 66B1DFE7
CRC32 hash : 66B1DFE7
CRC32 hash (skip zero) : 0DF234FC
AccurateRip signature : 33371482
->Accurately ripped! (confidence 3)
Statistics
Read error : 0
Jitter error (maybe fixed) : 0
Retry sector count : 0
Damaged sector count : 0
Track 02
Pre-gap length : 00:01:74
Track gain : -2.45 dB
Peak : 0.754944
CRC32 hash (test run) : A5298A73
CRC32 hash : A5298A73
CRC32 hash (skip zero) : 1F4A58AD
AccurateRip signature : 39642F8F
->Accurately ripped! (confidence 3)
Statistics
Read error : 0
Jitter error (maybe fixed) : 0
Retry sector count : 0
Damaged sector count : 0
Track 03
Pre-gap length : 00:02:02
Track gain : -3.49 dB
Peak : 0.831451
CRC32 hash (test run) : EB84F5AC
CRC32 hash : EB84F5AC
CRC32 hash (skip zero) : 21686207
AccurateRip signature : 64DDE547
->Accurately ripped! (confidence 3)
Statistics
Read error : 0
Jitter error (maybe fixed) : 0
Retry sector count : 0
Damaged sector count : 0
Track 04
Pre-gap length : 00:01:63
Track gain : -2.53 dB
Peak : 0.814697
CRC32 hash (test run) : 06C14D09
CRC32 hash : 06C14D09
CRC32 hash (skip zero) : 82EB87BE
AccurateRip signature : 356CA92B
->Accurately ripped! (confidence 3)
Statistics
Read error : 0
Jitter error (maybe fixed) : 0
Retry sector count : 0
Damaged sector count : 0
Track 05
Pre-gap length : 00:01:59
Track gain : -2.70 dB
Peak : 0.776093
CRC32 hash (test run) : 8855A2EA
CRC32 hash : 8855A2EA
CRC32 hash (skip zero) : 24FDF406
AccurateRip signature : 4074F9CC
->Accurately ripped! (confidence 3)
Statistics
Read error : 0
Jitter error (maybe fixed) : 0
Retry sector count : 0
Damaged sector count : 0
Track 06
Pre-gap length : 00:01:49
Track gain : -2.66 dB
Peak : 0.997131
CRC32 hash (test run) : 7067F76D
CRC32 hash : 7067F76D
CRC32 hash (skip zero) : 95F65688
AccurateRip signature : 0CB1FBBB
->Accurately ripped! (confidence 3)
Statistics
Read error : 0
Jitter error (maybe fixed) : 0
Retry sector count : 0
Damaged sector count : 0
Track 07
Pre-gap length : 00:01:18
Track gain : -1.89 dB
Peak : 0.860382
CRC32 hash (test run) : EB29CF92
CRC32 hash : EB29CF92
CRC32 hash (skip zero) : 15F66A50
AccurateRip signature : C9EF0B88
->Accurately ripped! (confidence 3)
Statistics
Read error : 0
Jitter error (maybe fixed) : 0
Retry sector count : 0
Damaged sector count : 0
Track 08
Pre-gap length : 00:01:68
Track gain : -0.87 dB
Peak : 0.747711
CRC32 hash (test run) : 8368C440
CRC32 hash : 8368C440
CRC32 hash (skip zero) : 83801A59
AccurateRip signature : EADC6B72
->Accurately ripped! (confidence 3)
Statistics
Read error : 0
Jitter error (maybe fixed) : 0
Retry sector count : 0
Damaged sector count : 0
Track 09
Pre-gap length : 00:01:35
Track gain : -3.31 dB
Peak : 0.823242
CRC32 hash (test run) : 8081670B
CRC32 hash : 8081670B
CRC32 hash (skip zero) : 86DD07FD
AccurateRip signature : A83D2A0C
->Accurately ripped! (confidence 3)
Statistics
Read error : 0
Jitter error (maybe fixed) : 0
Retry sector count : 0
Damaged sector count : 0
Track 10
Pre-gap length : 00:01:59
Track gain : -1.17 dB
Peak : 0.628632
CRC32 hash (test run) : BB37A20F
CRC32 hash : BB37A20F
CRC32 hash (skip zero) : 82608927
AccurateRip signature : D582795D
->Accurately ripped! (confidence 3)
Statistics
Read error : 0
Jitter error (maybe fixed) : 0
Retry sector count : 0
Damaged sector count : 0
Track 11
Pre-gap length : 00:01:65
Track gain : -0.85 dB
Peak : 0.751556
CRC32 hash (test run) : CC6E0AD8
CRC32 hash : CC6E0AD8
CRC32 hash (skip zero) : 2002BEA9
AccurateRip signature : 2C453841
->Accurately ripped! (confidence 3)
Statistics
Read error : 0
Jitter error (maybe fixed) : 0
Retry sector count : 0
Damaged sector count : 0
Track 12
Pre-gap length : 00:01:27
Track gain : -0.86 dB
Peak : 0.598602
CRC32 hash (test run) : ECF3DC3D
CRC32 hash : ECF3DC3D
CRC32 hash (skip zero) : B152EB13
AccurateRip signature : C8F3C523
->Accurately ripped! (confidence 3)
Statistics
Read error : 0
Jitter error (maybe fixed) : 0
Retry sector count : 0
Damaged sector count : 0
Track 13
Pre-gap length : 00:02:25
Track gain : -1.20 dB
Peak : 0.732849
CRC32 hash (test run) : A1E1B45C
CRC32 hash : A1E1B45C
CRC32 hash (skip zero) : 27ECD884
AccurateRip signature : 4D54959F
->Accurately ripped! (confidence 4)
Statistics
Read error : 0
Jitter error (maybe fixed) : 0
Retry sector count : 0
Damaged sector count : 0
Track 14
Pre-gap length : 00:02:01
Track gain : -1.63 dB
Peak : 0.630371
CRC32 hash (test run) : B0BDF804
CRC32 hash : B0BDF804
CRC32 hash (skip zero) : E455C798
AccurateRip signature : EBB5F8DC
->Accurately ripped! (confidence 4)
Statistics
Read error : 0
Jitter error (maybe fixed) : 0
Retry sector count : 0
Damaged sector count : 0
Track 15
Pre-gap length : 00:01:31
Track gain : -1.97 dB
Peak : 0.777161
CRC32 hash (test run) : D8BA93B3
CRC32 hash : D8BA93B3
CRC32 hash (skip zero) : 68AF0CCA
AccurateRip signature : FFA1C9E4
->Accurately ripped! (confidence 4)
Statistics
Read error : 0
Jitter error (maybe fixed) : 0
Retry sector count : 0
Damaged sector count : 0
Track 16
Pre-gap length : 00:02:09
Track gain : -1.23 dB
Peak : 0.675934
CRC32 hash (test run) : C6BB1374
CRC32 hash : C6BB1374
CRC32 hash (skip zero) : FEF45432
AccurateRip signature : C141CC84
->Accurately ripped! (confidence 4)
Statistics
Read error : 0
Jitter error (maybe fixed) : 0
Retry sector count : 0
Damaged sector count : 0
Track 17
Pre-gap length : 00:01:73
Track gain : -1.29 dB
Peak : 0.791595
CRC32 hash (test run) : 1200BCBC
CRC32 hash : 1200BCBC
CRC32 hash (skip zero) : E91F594E
AccurateRip signature : 0B4DE2BA
->Accurately ripped! (confidence 4)
Statistics
Read error : 0
Jitter error (maybe fixed) : 0
Retry sector count : 0
Damaged sector count : 0
Track 18
Pre-gap length : 00:01:49
Track gain : -1.50 dB
Peak : 0.666473
CRC32 hash (test run) : 2A9F4E11
CRC32 hash : 2A9F4E11
CRC32 hash (skip zero) : CC83D435
AccurateRip signature : 4314E0CE
->Accurately ripped! (confidence 4)
Statistics
Read error : 0
Jitter error (maybe fixed) : 0
Retry sector count : 0
Damaged sector count : 0
Track 19
Pre-gap length : 00:01:29
Track gain : -0.98 dB
Peak : 0.732178
CRC32 hash (test run) : 8AF39324
CRC32 hash : 8AF39324
CRC32 hash (skip zero) : 77463E8F
AccurateRip signature : 8BB05A13
->Accurately ripped! (confidence 4)
Statistics
Read error : 0
Jitter error (maybe fixed) : 0
Retry sector count : 0
Damaged sector count : 0
Track 20
Pre-gap length : 00:01:44
Track gain : -0.76 dB
Peak : 0.660614
CRC32 hash (test run) : D45C6CB0
CRC32 hash : D45C6CB0
CRC32 hash (skip zero) : B5A6BAB1
AccurateRip signature : 465EE516
->Accurately ripped! (confidence 4)
Statistics
Read error : 0
Jitter error (maybe fixed) : 0
Retry sector count : 0
Damaged sector count : 0
Track 21
Pre-gap length : 00:02:26
Track gain : -1.03 dB
Peak : 0.718414
CRC32 hash (test run) : D4BFD952
CRC32 hash : D4BFD952
CRC32 hash (skip zero) : 29F6DC58
AccurateRip signature : AAE7AFA5
->Accurately ripped! (confidence 4)
Statistics
Read error : 0
Jitter error (maybe fixed) : 0
Retry sector count : 0
Damaged sector count : 0
Track 22
Pre-gap length : 00:01:60
Track gain : 0.43 dB
Peak : 0.513519
CRC32 hash (test run) : 36FFBB0F
CRC32 hash : 36FFBB0F
CRC32 hash (skip zero) : C11E76E3
AccurateRip signature : 523A0BDC
->Accurately ripped! (confidence 4)
Statistics
Read error : 0
Jitter error (maybe fixed) : 0
Retry sector count : 0
Damaged sector count : 0
Track 23
Pre-gap length : 00:01:68
Track gain : 0.44 dB
Peak : 0.581207
CRC32 hash (test run) : D2D37DDF
CRC32 hash : D2D37DDF
CRC32 hash (skip zero) : 8AEA3459
AccurateRip signature : E496AA02
->Accurately ripped! (confidence 4)
Statistics
Read error : 0
Jitter error (maybe fixed) : 0
Retry sector count : 0
Damaged sector count : 0
Track 24
Pre-gap length : 00:02:42
Track gain : -1.28 dB
Peak : 0.629303
CRC32 hash (test run) : D2E715E7
CRC32 hash : D2E715E7
CRC32 hash (skip zero) : 140EEF52
AccurateRip signature : 095F8781
->Accurately ripped! (confidence 4)
Statistics
Read error : 0
Jitter error (maybe fixed) : 0
Retry sector count : 0
Damaged sector count : 0
No errors occurred
End of status report
 
Лог проверки качества
-----------------------
DON'T MODIFY THIS FILE
-----------------------
PERFORMER: auCDtect Task Manager, ver. 1.5.1RC2 build 1.5.1.3
Copyright (c) 2008-2010 y-soft. All rights reserved
http://y-soft.org
ANALYZER: auCDtect: CD records authenticity detector, version 0.8.2
Copyright (c) 2004 Oleg Berngardt. All rights reserved.
Copyright (c) 2004 Alexander Djourik. All rights reserved.
FILE: 01 Julie London - The End of the World .flac
Size: 351085828 Hash: 527A35CF408D9DEB6BC42BF4EECC33FF Accuracy: -m0
Conclusion: CDDA 100%
Signature: A50716C7B08819BB66EBAB164C9657BC729CAC10
 
Об исполнителе (группе)
Джули Лондон
Julie London
День рождения: 26.09.1926 года
Место рождения: Санта-Роза, штат Калифорния , США
Дата смерти: 18.10.2000 года
Место смерти: Лос-Анджелес, США
Гражданство: США
Original name: Gayle Peck
Джули Лондон (настоящее имя - Gayle Peck) родилась в 1926-м году в городке Санта-Роза (Santa Rosa), штат Калифорния (California). У ее родителей, Джека и Джозефины Пек (Jack and Josephine Peck), был свой театр, в котором Джули пела и играла с ранних лет. Когда девочке было 14 лет, семья переехала в Лос-Анджелес (Los Angeles); вскоре после этого, в 1945-м, она окончила Голливудскую Профессиональную Школу (Hollywood Professional School). Спустя пару лет актриса вышла замуж за актера Джека Уэбба (Jack Webb), с которым у нее впоследствии родилось две дочери – Стэйси (Stacy) и Лайза (Lisa).
Актерский дебют состоялся для Лондон в 1944-м году, после съемок в приключенческом фильме режиссера Сэма Ньюфилда (Sam Newfield), 'Nabonga', в котором актриса сыграла одну из ведущих ролей. Менее чем через год к Джули поступили предложения ролей в фильмах 'On Stage Everybody' и 'Красный дом' (The Red House).
В 1953-м году Джули развелась со своим супругом, а всего через год познакомилась с популярным музыкантом и композитором в стиле джаз Бобби Трупом (Bobby Troup), который в то время выступал в одном из клубов Лос-Анджелеса. Они поженились в 1954-м году и прожили вместе более 45 лет, вплоть до самой смерти Бобби в 1999-м году; у супругов родилось трое детей – дочь Келли (Kelly) и близнецы Джоди и Риз (Jody and Reese).
Еще будучи ребенком, Джули серьезно увлекалась музыкой, особенно пением. Однако лишь после успешного начала актерской карьеры звукозаписывающие студии заметили талантливую певицу. Первый концерт Джули Лондон состоялся в 1955-м году в клубе '881 Club' в Лос-Анджелесе; а впоследствии актриса выпустила 32 полноценных альбома со своими записями. Джули также получала титул 'самой популярной женской певицы' по мнению журнала 'Billboard' в 1955-м, 1956-м и 1957-м годах. В 1957-м году исполнительница появилась на обложке журнала 'Life'.
Ее первой звукозаписывающей компанией была 'Bethlehem Records', заключить контракт с которой ей помог Бобби Труп. Несколько из песен Лондон даже попали на сборник студии 1955-го года, вышедший под названием 'Bethlehem's Girlfriends'. Наибольшей популярности Джули добилась после выхода ее сингла 'Cry Me a River', текст которого написал школьный друг певицы, а музыку сочинил все тот же Бобби. Диск, релиз которого состоялся в декабре 1955-го года, почти сразу разошелся миллионным тиражом лишь в Соединенных Штатах и принес огромную славу артистке.
Ее роли в кино также порой оказывались 'поющими', так Лондон исполнила свою песню в фильме 'The Girl Can't Help It!' в 1956-м году.
Кроме карьеры в кинофильмах и музыкальной индустрии, актриса нередко участвовала в различных сериалах и телешоу, самыми известными из которых были 'The Big Valley' и 'Adam-12'. Известно также, что актриса оставалась в хороших отношениях со своим первым супругом и даже участвовала в нескольких его проектах, среди которых был телесериал 'Emergency!' и 'Adam-12'.
В 1960-х и 1970-х актриса активно снималась в фильмах и сериалах, однако в 90-х карьера актрисы пошла на спад. В 1995-м году Джули перенесла инсульт, а после смерти ее мужа в 1999-м году она и вовсе ослабела.
Джули Лондон умерла 18 октября 2000-го года, в возрасте 74 лет. Ее похоронили рядом с мужем, на кладбище Forest Lawn - Hollywood Hills Cemetery в Лос-Анджелесе
Автор: Евгений Танцурин
Any questions - support@pro-jazz.com
To become a power user - read FAQ.
04:04
670
Нет комментариев. Ваш будет первым!