Поиск

(Vocal Jazz, Jazz-Pop) [CD] Laila Biali - Laila Biali - 2018 [ACT Music], FLAC (tracks+.cue), lossless

(Vocal Jazz, Jazz-Pop) [CD] Laila Biali - Laila Biali - 2018 [ACT Music], FLAC (tracks+.cue), lossless
Треклист:
Laila Biali
'
Жанр: Vocal Jazz, Jazz-Pop
Страна-производитель диска: Germany
Год издания: 2018
Издатель (лейбл): ACT Music
Номер по каталогу: ACT 9041-2
Страна исполнителя: Canada
Аудиокодек: FLAC (*.flac)
Тип рипа: tracks+.cue
Битрейт аудио: lossless
Продолжительность: 56:08
Источник (релизер): спасибо pankkake
Наличие сканов: front + booklet.pdf
01 - Got to Love
02 - We Go
03 - Satellite
04 - Yellow
05 - Refugee
06 - Dolores Angel
07 - Queen of Hearts
08 - Serenbe
09 - Code Breaking
10 - I Think It's Going to Rain Today
11 - Wind
12 - Let's Dance
Composed by L. Biali, expect 4 - Coldplay, 10 - R. Newman, 12 - D.Bowie
 
Лог создания рипа
X Lossless Decoder version 20170729 (150.3)
XLD extraction logfile from 2018-01-31 18:36:27 -0500
Laila Biali / Laila Biali
Used drive : OPTIARC DVD RW AD-5670S (revision 2AHH)
Media type : Pressed CD
Ripper mode : XLD Secure Ripper
Disable audio cache : OK for the drive with a cache less than 1375KiB
Make use of C2 pointers : NO
Read offset correction : 48
Max retry count : 20
Gap status : Analyzed, Appended (except HTOA)
TOC of the extracted CD
Track | Start | Length | Start sector | End sector
---------------------------------------------------------
1 | 00:00:00 | 03:14:19 | 0 | 14568
2 | 03:14:19 | 05:17:30 | 14569 | 38373
3 | 08:31:49 | 05:06:00 | 38374 | 61323
4 | 13:37:49 | 04:42:61 | 61324 | 82534
5 | 18:20:35 | 05:25:40 | 82535 | 106949
6 | 23:46:00 | 04:35:37 | 106950 | 127611
7 | 28:21:37 | 04:54:00 | 127612 | 149661
8 | 33:15:37 | 04:22:04 | 149662 | 169315
9 | 37:37:41 | 04:45:61 | 169316 | 190751
10 | 42:23:27 | 03:37:41 | 190752 | 207067
11 | 46:00:68 | 05:21:33 | 207068 | 231175
12 | 51:22:26 | 04:45:61 | 231176 | 252611
AccurateRip Summary
Disc not found in AccurateRip DB.
All Tracks
Album gain : -9.30 dB
Peak : 1.000000
Statistics
Read error : 0
Jitter error (maybe fixed) : 0
Retry sector count : 0
Damaged sector count : 0
Track 01
Filename : /Users/USER_1/Documents/Tunes/Laila Biali - Laila Biali (2018) [FLAC]01 Got To Love.flac
Pre-gap length : 00:02:00
Track gain : -9.71 dB
Peak : 1.000000
CRC32 hash (test run) : 435952F7
CRC32 hash : 435952F7
CRC32 hash (skip zero) : 8E1F8033
AccurateRip v1 signature : 5A40B485
AccurateRip v2 signature : 25ABDA1E
->Track not present in AccurateRip database.
Statistics
Read error : 0
Jitter error (maybe fixed) : 0
Retry sector count : 0
Damaged sector count : 0
Track 02
Filename : /Users/USER_1/Documents/Tunes/Laila Biali - Laila Biali (2018) [FLAC]02 We Go.flac
Track gain : -9.30 dB
Peak : 1.000000
CRC32 hash (test run) : 7CD74F3E
CRC32 hash : 7CD74F3E
CRC32 hash (skip zero) : 6C6CADD9
AccurateRip v1 signature : 04956B8F
AccurateRip v2 signature : 51AE21CF
->Track not present in AccurateRip database.
Statistics
Read error : 0
Jitter error (maybe fixed) : 0
Retry sector count : 0
Damaged sector count : 0
Track 03
Filename : /Users/USER_1/Documents/Tunes/Laila Biali - Laila Biali (2018) [FLAC]03 Satellite.flac
Track gain : -8.05 dB
Peak : 0.994232
CRC32 hash (test run) : 983A2B22
CRC32 hash : 983A2B22
CRC32 hash (skip zero) : 1026A3B6
AccurateRip v1 signature : EA25718E
AccurateRip v2 signature : 119FCD15
->Track not present in AccurateRip database.
Statistics
Read error : 0
Jitter error (maybe fixed) : 0
Retry sector count : 0
Damaged sector count : 0
Track 04
Filename : /Users/USER_1/Documents/Tunes/Laila Biali - Laila Biali (2018) [FLAC]04 Yellow.flac
Track gain : -8.45 dB
Peak : 1.000000
CRC32 hash (test run) : 866F69B8
CRC32 hash : 866F69B8
CRC32 hash (skip zero) : D034C917
AccurateRip v1 signature : 4EA22F7C
AccurateRip v2 signature : 3576558E
->Track not present in AccurateRip database.
Statistics
Read error : 0
Jitter error (maybe fixed) : 0
Retry sector count : 0
Damaged sector count : 0
Track 05
Filename : /Users/USER_1/Documents/Tunes/Laila Biali - Laila Biali (2018) [FLAC]05 Refugee.flac
Track gain : -9.86 dB
Peak : 0.999969
CRC32 hash (test run) : 7EB4F5E0
CRC32 hash : 7EB4F5E0
CRC32 hash (skip zero) : CFB48B7E
AccurateRip v1 signature : 95BAA164
AccurateRip v2 signature : 087B676F
->Track not present in AccurateRip database.
Statistics
Read error : 0
Jitter error (maybe fixed) : 0
Retry sector count : 0
Damaged sector count : 0
Track 06
Filename : /Users/USER_1/Documents/Tunes/Laila Biali - Laila Biali (2018) [FLAC]06 Dolores Angel.flac
Track gain : -8.73 dB
Peak : 1.000000
CRC32 hash (test run) : 65626E21
CRC32 hash : 65626E21
CRC32 hash (skip zero) : 41308469
AccurateRip v1 signature : B3F15C84
AccurateRip v2 signature : 1FEB0B0D
->Track not present in AccurateRip database.
Statistics
Read error : 0
Jitter error (maybe fixed) : 0
Retry sector count : 0
Damaged sector count : 0
Track 07
Filename : /Users/USER_1/Documents/Tunes/Laila Biali - Laila Biali (2018) [FLAC]07 Queen Of Hearts.flac
Track gain : -9.80 dB
Peak : 1.000000
CRC32 hash (test run) : BFEB5E8D
CRC32 hash : BFEB5E8D
CRC32 hash (skip zero) : 0B794820
AccurateRip v1 signature : E5B7204C
AccurateRip v2 signature : BF99AD53
->Track not present in AccurateRip database.
Statistics
Read error : 0
Jitter error (maybe fixed) : 0
Retry sector count : 0
Damaged sector count : 0
Track 08
Filename : /Users/USER_1/Documents/Tunes/Laila Biali - Laila Biali (2018) [FLAC]08 Serenbe.flac
Track gain : -9.24 dB
Peak : 1.000000
CRC32 hash (test run) : 97FC1381
CRC32 hash : 97FC1381
CRC32 hash (skip zero) : 69DD17BC
AccurateRip v1 signature : 44B189D3
AccurateRip v2 signature : 8A976D03
->Track not present in AccurateRip database.
Statistics
Read error : 0
Jitter error (maybe fixed) : 0
Retry sector count : 0
Damaged sector count : 0
Track 09
Filename : /Users/USER_1/Documents/Tunes/Laila Biali - Laila Biali (2018) [FLAC]09 Code Breaking.flac
Track gain : -9.92 dB
Peak : 1.000000
CRC32 hash (test run) : C24F2A5B
CRC32 hash : C24F2A5B
CRC32 hash (skip zero) : 9E984B52
AccurateRip v1 signature : 8BDEDF43
AccurateRip v2 signature : 95E415D7
->Track not present in AccurateRip database.
Statistics
Read error : 0
Jitter error (maybe fixed) : 0
Retry sector count : 0
Damaged sector count : 0
Track 10
Filename : /Users/USER_1/Documents/Tunes/Laila Biali - Laila Biali (2018) [FLAC]10 I Think It's Going To Rain Today.flac
Track gain : -3.84 dB
Peak : 0.972321
CRC32 hash (test run) : A9AE270C
CRC32 hash : A9AE270C
CRC32 hash (skip zero) : 0D545058
AccurateRip v1 signature : 3A4B31F5
AccurateRip v2 signature : 2185E048
->Track not present in AccurateRip database.
Statistics
Read error : 0
Jitter error (maybe fixed) : 0
Retry sector count : 0
Damaged sector count : 0
Track 11
Filename : /Users/USER_1/Documents/Tunes/Laila Biali - Laila Biali (2018) [FLAC]11 Wind.flac
Track gain : -9.75 dB
Peak : 1.000000
CRC32 hash (test run) : 3B2C20CE
CRC32 hash : 3B2C20CE
CRC32 hash (skip zero) : F2A19A7F
AccurateRip v1 signature : 523AB302
AccurateRip v2 signature : 5430DBE7
->Track not present in AccurateRip database.
Statistics
Read error : 0
Jitter error (maybe fixed) : 0
Retry sector count : 0
Damaged sector count : 0
Track 12
Filename : /Users/USER_1/Documents/Tunes/Laila Biali - Laila Biali (2018) [FLAC]12 Let's Dance.flac
Track gain : -8.32 dB
Peak : 1.000000
CRC32 hash (test run) : 36A5A52B
CRC32 hash : 36A5A52B
CRC32 hash (skip zero) : 3FF8288C
AccurateRip v1 signature : 912936E5
AccurateRip v2 signature : D88785BF
->Track not present in AccurateRip database.
Statistics
Read error : 0
Jitter error (maybe fixed) : 0
Retry sector count : 0
Damaged sector count : 0
No errors occurred
End of status report
-----BEGIN XLD SIGNATURE-----
_53oO8TOdvTcGxZuBhpBZ6SasXVff6AkWo5cgqp8tGZYvjMXvnp8fd8Z3.9oR3Vsqspcfo3nh5bVv8GuN.B5mgyLdkH35i1rW6549ma
-----END XLD SIGNATURE-----
 
Содержание индексной карты (.CUE)
TITLE "Laila Biali"
PERFORMER "Laila Biali"
REM GENRE "Jazz"
REM DATE "2018"
REM DISCNUMBER 1
REM TOTALDISCS 1
REM DISCID A70D280C
REM REPLAYGAIN_ALBUM_GAIN -9.30 dB
REM REPLAYGAIN_ALBUM_PEAK 1.000000
FILE "01 Got To Love.flac" WAVE
TRACK 01 AUDIO
TITLE "Got To Love"
ISRC CA31S1700001
FLAGS DCP
REM REPLAYGAIN_TRACK_GAIN -9.71 dB
REM REPLAYGAIN_TRACK_PEAK 1.000000
INDEX 01 00:00:00
FILE "02 We Go.flac" WAVE
TRACK 02 AUDIO
TITLE "We Go"
ISRC CA31S1700002
FLAGS DCP
REM REPLAYGAIN_TRACK_GAIN -9.30 dB
REM REPLAYGAIN_TRACK_PEAK 1.000000
INDEX 01 00:00:00
FILE "03 Satellite.flac" WAVE
TRACK 03 AUDIO
TITLE "Satellite"
ISRC CA31S1700003
FLAGS DCP
REM REPLAYGAIN_TRACK_GAIN -8.05 dB
REM REPLAYGAIN_TRACK_PEAK 0.994232
INDEX 01 00:00:00
FILE "04 Yellow.flac" WAVE
TRACK 04 AUDIO
TITLE "Yellow"
ISRC CA31S1700004
FLAGS DCP
REM REPLAYGAIN_TRACK_GAIN -8.45 dB
REM REPLAYGAIN_TRACK_PEAK 1.000000
INDEX 01 00:00:00
FILE "05 Refugee.flac" WAVE
TRACK 05 AUDIO
TITLE "Refugee"
ISRC CA31S1700005
FLAGS DCP
REM REPLAYGAIN_TRACK_GAIN -9.86 dB
REM REPLAYGAIN_TRACK_PEAK 0.999969
INDEX 01 00:00:00
FILE "06 Dolores Angel.flac" WAVE
TRACK 06 AUDIO
TITLE "Dolores Angel"
ISRC CA31S1700006
FLAGS DCP
REM REPLAYGAIN_TRACK_GAIN -8.73 dB
REM REPLAYGAIN_TRACK_PEAK 1.000000
INDEX 01 00:00:00
FILE "07 Queen Of Hearts.flac" WAVE
TRACK 07 AUDIO
TITLE "Queen Of Hearts"
ISRC CA31S1700007
FLAGS DCP
REM REPLAYGAIN_TRACK_GAIN -9.80 dB
REM REPLAYGAIN_TRACK_PEAK 1.000000
INDEX 01 00:00:00
FILE "08 Serenbe.flac" WAVE
TRACK 08 AUDIO
TITLE "Serenbe"
ISRC CA31S1700008
FLAGS DCP
REM REPLAYGAIN_TRACK_GAIN -9.24 dB
REM REPLAYGAIN_TRACK_PEAK 1.000000
INDEX 01 00:00:00
FILE "09 Code Breaking.flac" WAVE
TRACK 09 AUDIO
TITLE "Code Breaking"
ISRC CA31S1700009
FLAGS DCP
REM REPLAYGAIN_TRACK_GAIN -9.92 dB
REM REPLAYGAIN_TRACK_PEAK 1.000000
INDEX 01 00:00:00
FILE "10 I Think It's Going To Rain Today.flac" WAVE
TRACK 10 AUDIO
TITLE "I Think It's Going To Rain Today"
ISRC CA31S1700010
FLAGS DCP
REM REPLAYGAIN_TRACK_GAIN -3.84 dB
REM REPLAYGAIN_TRACK_PEAK 0.972321
INDEX 01 00:00:00
FILE "11 Wind.flac" WAVE
TRACK 11 AUDIO
TITLE "Wind"
ISRC CA31S1700011
FLAGS DCP
REM REPLAYGAIN_TRACK_GAIN -9.75 dB
REM REPLAYGAIN_TRACK_PEAK 1.000000
INDEX 01 00:00:00
FILE "12 Let's Dance.flac" WAVE
TRACK 12 AUDIO
TITLE "Let's Dance"
ISRC CA31S1700012
FLAGS DCP
REM REPLAYGAIN_TRACK_GAIN -8.32 dB
REM REPLAYGAIN_TRACK_PEAK 1.000000
INDEX 01 00:00:00
 
Об альбоме
„She is an exciting and unique talent and I admire her greatly“ Sting
Pop, jazz, Canada. To see how well these three go together, is not just a matter of looking back into the past. Canadian artists of our time such as Michael Bublé and Diana Krall have followed in the footsteps of legends such as Joni Mitchell. Whereas these genres of music have sometimes been seen as at loggerheads, in the land of the maple leaf they get along together just fine.
Laila Biali, born in Vancouver, has her place in this tradition - and yet she is never just imitating anybody else. The singer-pianist has won several prizes, and not only in her native country. DOWNBEAT magazine included her music in its albums of the year. Spinner magazine admired her ability to bring traditional jazz and contemporary pop together naturally, and to create a compelling blend from them. Her sixth album – which is also her ACT debut, represents the culmination of everything she has done until now.
“I have been in search of my artistic voice ever since my first album,” the classically trained pianist explains. “I have experimented with so many genres. Everything felt right to me, but it never really encompassed the totality of who I am. LAILA BIALI unites all the facets of me as an artist: pianist, singer. arranger, composer, a devotee of jazz and of other genres. With this album I feel I have truly arrived.”
Biali gained her first experience on the big stage as a backing vocalist for Sting, which was also where she met several members of her band. She met her drummer - and future husband - Ben Wittman, however, on tour with Paula Cole. “Ben plays a unique mix of percussion and drums, she says. “His grooves are deep and rootsy - a perfect complement to the faster, funky grooves of Larnell
Lewis." Like trumpeter Mike "Maz" Maher, Lewis is a member of the mega-successful fusion band Snarky Puppy, for whom nothing is musically off-limits.
These three, together with top-flight people such as Lisa Fischer, long-time singer on Rolling-Stones tours, and multi-award-winning jazz trumpeter Ambrose Akinmusire, form a powerful backing band for Laila Biali's joyously colourful ACT debut. Sam Yahel, who was organist in the seminal Joshua Redman Elastic Band, completes the illustrious circle of guests on the album.
The spirited “Got To Love” is the entry point into the album, with its funky handclaps and gutsy organ riffs, an ecstatic mood that Biali then tempers with the Latininflected "We Go". An intense cover version of Coldplay's "Yellow" is the first of three songs by others which the singer has added into the mix with her own compositions: "I have always enjoyed arranging songs," says Biali, who now lives with her family in Toronto. “At concerts we have often gone with the flow of what audiences want. Coldplay, Randy Newman and David Bowie were always our favourites.” Newman's "I Think It's Going To Rain Today" shows Biali's sensitive, introverted side. Alone at the piano she creates a real tingle factor, while "Let's Dance" is a remarkable, soulful Bowie cover.
The cheerful, ear-wormish song “Wind” is based on a poem written by the singer decades ago. "I struggled with the lyrics for a long time, they never seemed to fit properly. I even asked Sting to help me! In the end it was some verses by the Persian mystic poet Rumi that enabled me to complete it."
Laila Biali has her own concept of jazz, in which soul, indie-rock, blues and pop all have their place. The album LAILA BIALI is wonderfully catchy, but can’t be pigeonholed into any of the standard mainstream radio formats. There is sophistication, but it eschews the seriousness of high culture. This ACT debut album sparkles with exuberant playfulness and beautifully crafted variety. And the singer´s own verdict: “This album feels like a homecoming.”
 
Состав
Laila Biali / vocals, piano, keys
George Koller / bass
Larnell Lewis / drums (01, 02, 04, 08, 09, 11, 12)
Ben Wittman / drums (03, 05, 06, 07), percussion
Ambrose Akinmusire / trumpet (03, 05)
Mike “Maz” Maher / trumpet (02, 08, 09, 11)
Sam Yahel / organ (01, 02, 05, 06, 07, 08, 09, 12)
Glenn Patscha / organ (solo on 02), keys (12)
Lisa Fischer / vocals (01, 02, 05, 06, 07, 08)
Jo Lawry / vocals (all tracks except 09)
Carlos Ricketts / vocals (01, 02, 06, 07)
Приватный:
Нет (DHT включён)
Размер:
351.43 Мб (368,505,954 байт) » файлов: 17
Участники:
0 раздают, 0 качают (0 участников всего)
Внешние участники:
--- [ Обновить ]
07:11
2
Нет комментариев. Ваш будет первым!