Вы используете незарегистрированную версию компонента "Вкладки"!

Поиск

(Vocal Jazz) Etta Jones - My Mother's Eyes (1977) - 1997, FLAC (tracks+.cue), lossless

(Vocal Jazz) Etta Jones - My Mother's Eyes (1977) - 1997, FLAC (tracks+.cue), lossless
Треклист:
Etta Jones – My Mother's Eyes (1977)
Жанр: Vocal Jazz
Год издания диска: 1997
Издатель (лейбл): Jazz 32/Muse Records
Аудиокодек: FLAC (*.flac)
Тип рипа: tracks+.cue
Битрейт аудио: lossless
Продолжительность: 36:05
Источник: вата
Сканов:
Треклист:
01. The Way You Look Tonight (4:50)
02. Don't Misunderstand (6:12)
03. Be My Love (5:50)
04. You Do Something To Me (4:45)
05. My Mother's Eyes (5:50)
06. This Girl's In Love With You (3:59)
07. Gloomy Sunday (4:39)
Personnel:
Etta Jones - vo
Houston Person - ts
Sonny Phillips - key
George Devens - vib
Jimmy Ponder - g
Rufus Reid - b
Idris Muhammand - d
Lawrence Killian - cga, perc
Rec.: Van Gelder Studio, Englewood Cliffs, NJ, June 23, 1977.
 
 
Лог создания рипа
X Lossless Decoder version 20101212 (126.2)
XLD extraction logfile from 2011-01-27 12:10:37 -0800
Etta Jones / My Mother's Eyes
Used drive : OPTIARC DVD RW AD-5630A (revision 1AHM)
Ripper mode : CDParanoia III 10.2
Disable audio cache : OK for the drive with a cache less than 2750KiB
Make use of C2 pointers : NO
Read offset correction : 48
Max retry count : 100
Gap status : Analyzed, Appended
TOC of the extracted CD
Track | Start | Length | Start sector | End sector
---------------------------------------------------------
1 | 00:00:00 | 04:50:32 | 0 | 21781
2 | 04:50:32 | 06:12:08 | 21782 | 49689
3 | 11:02:40 | 05:50:10 | 49690 | 75949
4 | 16:52:50 | 04:44:57 | 75950 | 97306
5 | 21:37:32 | 05:49:48 | 97307 | 123529
6 | 27:27:05 | 03:59:00 | 123530 | 141454
7 | 31:26:05 | 04:39:00 | 141455 | 162379
AccurateRip Summary
Track 01 : OK (confidence 1)
Track 02 : OK (confidence 1)
Track 03 : OK (confidence 1)
Track 04 : OK (confidence 1)
Track 05 : OK (confidence 1)
Track 06 : OK (confidence 1)
Track 07 : OK (confidence 1)
->All tracks accurately ripped.
All Tracks
Album gain : -3.60 dB
Peak : 1.000000
Statistics
Read error : 0
Skipped (treated as error) : 0
Edge jitter error (maybe fixed) : 0
Atom jitter error (maybe fixed) : 0
Drift error (maybe fixed) : 0
Dropped bytes error (maybe fixed) : 0
Duplicated bytes error (maybe fixed) : 0
Track 01
Filename : /Users/wardbushee/Desktop/Etta Jones - My Mother's Eyes (1997) [FLAC]/01 The Way You Look Tonight .flac
Pre-gap length : 00:02:00
Track gain : -4.43 dB
Peak : 0.991669
CRC32 hash (test run) : 031FD034
CRC32 hash : 031FD034
CRC32 hash (skip zero) : 8F8FF289
AccurateRip signature : 1A1950E0
->Accurately ripped! (confidence 1)
Statistics
Read error : 0
Skipped (treated as error) : 0
Edge jitter error (maybe fixed) : 0
Atom jitter error (maybe fixed) : 0
Drift error (maybe fixed) : 0
Dropped bytes error (maybe fixed) : 0
Duplicated bytes error (maybe fixed) : 0
Inconsistency in error sectors : 0
Track 02
Filename : /Users/wardbushee/Desktop/Etta Jones - My Mother's Eyes (1997) [FLAC]/02 Don't Misunderstand .flac
Pre-gap length : 00:02:72
Track gain : -4.02 dB
Peak : 0.998871
CRC32 hash (test run) : 24506884
CRC32 hash : 24506884
CRC32 hash (skip zero) : 85FC1922
AccurateRip signature : AEA23170
->Accurately ripped! (confidence 1)
Statistics
Read error : 0
Skipped (treated as error) : 0
Edge jitter error (maybe fixed) : 0
Atom jitter error (maybe fixed) : 0
Drift error (maybe fixed) : 0
Dropped bytes error (maybe fixed) : 0
Duplicated bytes error (maybe fixed) : 0
Inconsistency in error sectors : 0
Track 03
Filename : /Users/wardbushee/Desktop/Etta Jones - My Mother's Eyes (1997) [FLAC]/03 Be My Love .flac
Pre-gap length : 00:02:25
Track gain : -4.67 dB
Peak : 1.000000
CRC32 hash (test run) : 0E574D9E
CRC32 hash : 0E574D9E
CRC32 hash (skip zero) : 1A1F53BC
AccurateRip signature : AC7842CA
->Accurately ripped! (confidence 1)
Statistics
Read error : 0
Skipped (treated as error) : 0
Edge jitter error (maybe fixed) : 0
Atom jitter error (maybe fixed) : 0
Drift error (maybe fixed) : 0
Dropped bytes error (maybe fixed) : 0
Duplicated bytes error (maybe fixed) : 0
Inconsistency in error sectors : 0
Track 04
Filename : /Users/wardbushee/Desktop/Etta Jones - My Mother's Eyes (1997) [FLAC]/04 You Do Something To Me .flac
Pre-gap length : 00:02:45
Track gain : -3.75 dB
Peak : 0.999969
CRC32 hash (test run) : E2A61B6C
CRC32 hash : E2A61B6C
CRC32 hash (skip zero) : 681A687E
AccurateRip signature : E420599D
->Accurately ripped! (confidence 1)
Statistics
Read error : 0
Skipped (treated as error) : 0
Edge jitter error (maybe fixed) : 0
Atom jitter error (maybe fixed) : 0
Drift error (maybe fixed) : 0
Dropped bytes error (maybe fixed) : 0
Duplicated bytes error (maybe fixed) : 0
Inconsistency in error sectors : 0
Track 05
Filename : /Users/wardbushee/Desktop/Etta Jones - My Mother's Eyes (1997) [FLAC]/05 My Mother's Eyes .flac
Pre-gap length : 00:03:17
Track gain : -2.15 dB
Peak : 0.928680
CRC32 hash (test run) : 42FE4A9A
CRC32 hash : 42FE4A9A
CRC32 hash (skip zero) : 7EF23622
AccurateRip signature : EB13E845
->Accurately ripped! (confidence 1)
Statistics
Read error : 0
Skipped (treated as error) : 0
Edge jitter error (maybe fixed) : 0
Atom jitter error (maybe fixed) : 0
Drift error (maybe fixed) : 0
Dropped bytes error (maybe fixed) : 0
Duplicated bytes error (maybe fixed) : 0
Inconsistency in error sectors : 0
Track 06
Filename : /Users/wardbushee/Desktop/Etta Jones - My Mother's Eyes (1997) [FLAC]/06 This Girl's In Love With You .flac
Pre-gap length : 00:02:50
Track gain : -2.94 dB
Peak : 0.980377
CRC32 hash (test run) : 82E04E12
CRC32 hash : 82E04E12
CRC32 hash (skip zero) : C80B1601
AccurateRip signature : 831E8FF2
->Accurately ripped! (confidence 1)
Statistics
Read error : 0
Skipped (treated as error) : 0
Edge jitter error (maybe fixed) : 0
Atom jitter error (maybe fixed) : 0
Drift error (maybe fixed) : 0
Dropped bytes error (maybe fixed) : 0
Duplicated bytes error (maybe fixed) : 0
Inconsistency in error sectors : 0
Track 07
Filename : /Users/wardbushee/Desktop/Etta Jones - My Mother's Eyes (1997) [FLAC]/07 Gloomy Sunday .flac
Pre-gap length : 00:02:53
Track gain : 0.59 dB
Peak : 0.540985
CRC32 hash (test run) : 9DD7080D
CRC32 hash : 9DD7080D
CRC32 hash (skip zero) : 5DC96A05
AccurateRip signature : A15AA33E
->Accurately ripped! (confidence 1)
Statistics
Read error : 0
Skipped (treated as error) : 0
Edge jitter error (maybe fixed) : 0
Atom jitter error (maybe fixed) : 0
Drift error (maybe fixed) : 0
Dropped bytes error (maybe fixed) : 0
Duplicated bytes error (maybe fixed) : 0
Inconsistency in error sectors : 0
No errors occurred
End of status report
 
Содержание индексной карты (.CUE)
REM DATE 1977
REM GENRE Jazz
REM DISCID 67087507
PERFORMER "Etta Jones"
TITLE "My Mother's Eyes"
FILE "01. The Way You Look Tonight.flac" WAVE
TRACK 01 AUDIO
TITLE "The Way You Look Tonight"
INDEX 01 00:00:00
TRACK 02 AUDIO
TITLE "Don't Misunderstand"
INDEX 00 04:47:35
FILE "02. Don't Misunderstand.flac" WAVE
INDEX 01 00:00:00
TRACK 03 AUDIO
TITLE "Be My Love"
INDEX 00 06:09:58
FILE "03. Be My Love.flac" WAVE
INDEX 01 00:00:00
TRACK 04 AUDIO
TITLE "You Do Something To Me"
INDEX 00 05:47:40
FILE "04. You Do Something To Me.flac" WAVE
INDEX 01 00:00:00
TRACK 05 AUDIO
TITLE "My Mother's Eyes"
INDEX 00 04:41:40
FILE "05. My Mother's Eyes.flac" WAVE
INDEX 01 00:00:00
TRACK 06 AUDIO
TITLE "This Girl's In Love With You"
INDEX 00 05:46:73
FILE "06. This Girl's In Love With You.flac" WAVE
INDEX 01 00:00:00
TRACK 07 AUDIO
TITLE "Gloomy Sunday"
INDEX 00 03:56:22
FILE "07. Gloomy Sunday.flac" WAVE
INDEX 01 00:00:00
Any questions - support@pro-jazz.com. Есть вопросы - support@pro-jazz.com
02:41
318
Нет комментариев. Ваш будет первым!