Вы используете незарегистрированную версию компонента "Вкладки"!

Поиск

(Vocal Jazz) Etta Jones - Lonely and Blue (1962) - 1998, FLAC (image+.cue), lossless

Треклист:
Etta Jones / Lonely and Blue (1962)
Жанр: Vocal Jazz
Год издания: 1998
Аудиокодек: FLAC (*.flac)
Тип рипа: image+.cue
Битрейт аудио: lossless
Продолжительность: 50:09
Источник (релизер): my disc
Наличие сканов в содержимом раздачи: да
Треклист:
01. I'll Be There [0:02:55.32]
02. In The Dark [0:02:55.13]
03. Out In The Cold Again [0:03:16.40]
04. I'm Pulling Through [0:03:37.67]
05. My Gentleman Friend [0:02:20.33]
06. I Wonder [0:03:20.37]
07. You Don't Know My Mind [0:03:51.08]
08. Gee Baby,Ain't I Good To You [0:03:09.70]
09. Good For Nothing Joe [0:03:50.25]
10. I Miss You So [0:03:26.20]
11. Trav'lin' Light [0:03:43.42]
12. But Not For Me-Bonus [0:04:28.13]
13. If You're But A Dream-Bonus [0:04:22.42]
14. Cool Cool Daddy-Bonus [0:04:51.00]
 
Лог создания рипа
Exact Audio Copy V0.99 prebeta 4 from 23. January 2008
Отчёт EAC об извлечении, выполненном 11. октября 2012, 3:08
Etta Jones / Lonely And Blue
Дисковод: ASUS DRW-1814BL Adapter: 1 ID: 0
Режим чтения : Достоверность
Использование точного потока : Да
Отключение кэша аудио : Да
Использование указателей C2 : Нет
Коррекция смещения при чтении : 6
Способность читать области Lead-in и Lead-out : Нет
Заполнение пропущенных сэмплов тишиной : Да
Удаление блоков с тишиной в начале и конце : Нет
При вычислениях CRC использовались нулевые сэмплы : Да
Интерфейс : Установленный внешний ASPI-интерфейс
Выходной формат : Пользовательский кодировщик
Выбранный битрейт : 1024 kBit/s
Качество : Высокий
Добавление ID3-тэга : Нет
Утилита сжатия : C:\Program Files\Exact Audio Copy\FLAC\FLAC.EXE
Дополнительные параметры : -6 -V -T "ARTIST=%a" -T "TITLE=%t" -T "ALBUM=%g" -T "DATE=%y" -T "TRACKNUMBER=%n" -T "GENRE=%m" -T "COMMENT=%e" %s -o %d
TOC извлечённого CD
Трек | Старт | Длительность | Начальный сектор | Конечный сектор
---------------------------------------------------------------------
1 | 0:00.00 | 2:55.32 | 0 | 13156
2 | 2:55.32 | 2:55.13 | 13157 | 26294
3 | 5:50.45 | 3:16.40 | 26295 | 41034
4 | 9:07.10 | 3:37.67 | 41035 | 57376
5 | 12:45.02 | 2:20.33 | 57377 | 67909
6 | 15:05.35 | 3:20.37 | 67910 | 82946
7 | 18:25.72 | 3:51.08 | 82947 | 100279
8 | 22:17.05 | 3:09.70 | 100280 | 114524
9 | 25:27.00 | 3:50.25 | 114525 | 131799
10 | 29:17.25 | 3:26.20 | 131800 | 147269
11 | 32:43.45 | 3:43.42 | 147270 | 164036
12 | 36:27.12 | 4:28.13 | 164037 | 184149
13 | 40:55.25 | 4:22.42 | 184150 | 203841
14 | 45:17.67 | 4:51.00 | 203842 | 225666
Характеристики диапазона извлечения и сообщения об ошибках
Выбранный диапазон
Имя файла D:\loSSleSS\Etta Jones'62\Etta Jones - Lonely And Blue.wav
Пиковый уровень 100.0 %
Качество диапазона 100.0 %
CRC теста 899E2A66
CRC копии 899E2A66
Копирование... OK
Ошибок не произошло
AccurateRip: сводка
Трек 1 точность не определена (достоверность 4) [1BB7DBC3], AccurateRip вернул [8FF48262]
Трек 2 точность не определена (достоверность 4) [3950D2AE], AccurateRip вернул [CD409395]
Трек 3 точность не определена (достоверность 4) [32944A5E], AccurateRip вернул [6F28C591]
Трек 4 точность не определена (достоверность 4) [3A45DD0F], AccurateRip вернул [FC50624D]
Трек 5 точность не определена (достоверность 4) [30F8C28B], AccurateRip вернул [7D90A626]
Трек 6 точность не определена (достоверность 4) [BC4FEF53], AccurateRip вернул [BA5C4AFA]
Трек 7 точность не определена (достоверность 4) [E18B139A], AccurateRip вернул [E1F861C7]
Трек 8 точность не определена (достоверность 4) [8836343C], AccurateRip вернул [9286BEC4]
Трек 9 точность не определена (достоверность 4) [1C3F1A61], AccurateRip вернул [C5D665A0]
Трек 10 точность не определена (достоверность 4) [03038969], AccurateRip вернул [1C42D970]
Трек 11 точность не определена (достоверность 4) [CEE872E3], AccurateRip вернул [55E2D04F]
Трек 12 точность не определена (достоверность 4) [40431EA3], AccurateRip вернул [8E6D19C3]
Трек 13 точность не определена (достоверность 4) [A564BF97], AccurateRip вернул [19C707BF]
Трек 14 точность не определена (достоверность 4) [421D8DC8], AccurateRip вернул [88E691A7]
Ни один трек не прошёл проверки на точность
В вашей базе может быть иной вариант штамповки диска
Конец отчёта
 
Об исполнителе (группе)
25.11.1928, Эйкен, шт. Южная Каролина
Вокалистка, исполнительница блюза, соул и джаза.
В 16 лет дебютировала в оркестре Бада Джонсона. Пела в стиле "ритм-энд-блюз", записывалась с Барни Бигардом, Питом Джонсоном, в 1949–52 гастролировала с квартетом Эрла Хайнза. Стала известной в 1960 году после выпуска альбома Don’t Go To Strangers (было продано более миллиона экземпляров). В 1970 выступала в Японии с ансамблем Арта Блэйки, позже сотрудничала с Билли Тэйлором, Бадди Ричем, Сонни Ститом, Джином Аммонсом. С 1973 постоянно выступает с мужем — саксофонистом Хьюстоном Пёрсоном. Исполняя джазовые стандарты, широко использует элементы блюзового вокала. Самой удачной стала ее версия песни God Bless The Child.
 
Состав
Etta Jones-vocals
Patti Bown-piano
Budd Johnson-tenor sax (3,5,8,11)
Gene Ammons-tenor sax (12,13,14)
Wally Richrdson-guitar (1,2,4,6,7,9,10)
Art Davis-bass (3,5,8,11)
George Duvivier-bass
Ed Shaughnessy-drums
Walter Perkins-drums (12,13,14)
Any questions - support@pro-jazz.com. Есть вопросы - support@pro-jazz.com
06:32
409
Нет комментариев. Ваш будет первым!