Вы используете незарегистрированную версию компонента "Вкладки"!

Поиск

(Vocal Jazz) Etta Jones - Don't Go To Strangers - 2006, FLAC (tracks+.cue), lossless

(Vocal Jazz) Etta Jones - Don't Go To Strangers - 2006, FLAC (tracks+.cue), lossless
Треклист:
Etta Jones - Don't Go To Strangers
Жанр: Vocal Jazz
Год выпуска диска: 2006
Производитель диска: Prestige
Аудио кодек: FLAC
Тип рипа: tracks+.cue
Битрейт аудио: lossless
Источник: e2k
Трэклист:
1. Yes Sir, That's My Baby [4:20]
2. Don't Go To Strangers [3:49]
3. I Love Paris [4:02]
4. Fine And Mellow [5:51]
5. Where Or When [3:41]
6. If I Had You [3:50]
7. On The Street Where You Live [3:43]
8. Something To Remember You By [3:44]
9. Bye Bye Blackbird [3:15]
10. All The Way [4:39]
Etta Jones (vocals)
Frank Wess (tenor saxophone, flute)
Robert Wyands (piano)
Skeeter Best (guitar)
George Duvivier (bass)
Roy Haynes (drums)
Recorded in Englewood Cliffs, New Jersey on June 21, 1960 (Van Gelder Studios)
Remastering 2006, Rudy Van Gelder
 
Лог ЕАС
EAC extraction logfile from 11. December 2007, 12:43 for CD
Etta Jones / Don't Go to Strangers
Used drive : HL-DT-STDVDRAM GSA-4163B Adapter: 1 ID: 1
Read mode : Secure with NO C2, accurate stream, disable cache
Read offset correction : 667
Overread into Lead-In and Lead-Out : No
Used output format : Internal WAV Routines
44.100 Hz; 16 Bit; Stereo
Other options :
Fill up missing offset samples with silence : Yes
Delete leading and trailing silent blocks : No
Installed external ASPI interface
Track 1
Filename D:\Etta Jones - Don't Go To Strangers (1960)[FLAC]{Prestige RVG}\01 - Yes Sir, That's My Baby.wav
Pre-gap length 0:00:02.00
Peak level 97.9 %
Test CRC 7C754019
Copy CRC 7C754019
Copy OK
Track 2
Filename D:\Etta Jones - Don't Go To Strangers (1960)[FLAC]{Prestige RVG}\02 - Don't Go to Strangers.wav
Pre-gap length 0:00:02.64
Peak level 97.3 %
Test CRC 3170C865
Copy CRC 3170C865
Copy OK
Track 3
Filename D:\Etta Jones - Don't Go To Strangers (1960)[FLAC]{Prestige RVG}\03 - I Love Paris.wav
Pre-gap length 0:00:02.25
Peak level 97.9 %
Test CRC B046B7CA
Copy CRC B046B7CA
Copy OK
Track 4
Filename D:\Etta Jones - Don't Go To Strangers (1960)[FLAC]{Prestige RVG}\04 - Fine and Mellow.wav
Peak level 97.9 %
Test CRC ACA45E1B
Copy CRC ACA45E1B
Copy OK
Track 5
Filename D:\Etta Jones - Don't Go To Strangers (1960)[FLAC]{Prestige RVG}\05 - Where or When.wav
Pre-gap length 0:00:01.39
Peak level 97.9 %
Test CRC 8623DF43
Copy CRC 8623DF43
Copy OK
Track 6
Filename D:\Etta Jones - Don't Go To Strangers (1960)[FLAC]{Prestige RVG}\06 - If I Had You.wav
Peak level 97.9 %
Test CRC 5BF08BC9
Copy CRC 5BF08BC9
Copy OK
Track 7
Filename D:\Etta Jones - Don't Go To Strangers (1960)[FLAC]{Prestige RVG}\07 - On the Street Where You Live.wav
Pre-gap length 0:00:01.48
Peak level 97.9 %
Test CRC 5CE45378
Copy CRC 5CE45378
Copy OK
Track 8
Filename D:\Etta Jones - Don't Go To Strangers (1960)[FLAC]{Prestige RVG}\08 - Something to Remember You By.wav
Pre-gap length 0:00:01.67
Peak level 97.9 %
Test CRC 7249F766
Copy CRC 7249F766
Copy OK
Track 9
Filename D:\Etta Jones - Don't Go To Strangers (1960)[FLAC]{Prestige RVG}\09 - Bye Bye Blackbird.wav
Pre-gap length 0:00:01.00
Peak level 97.9 %
Test CRC FC1D72FD
Copy CRC FC1D72FD
Copy OK
Track 10
Filename D:\Etta Jones - Don't Go To Strangers (1960)[FLAC]{Prestige RVG}\10 - All the Way.wav
Pre-gap length 0:00:01.32
Peak level 96.7 %
Test CRC 4B6EDBB6
Copy CRC 4B6EDBB6
Copy OK
No errors occured
End of status report
 
Audiochecker
AUDIOCHECKER v2.0 beta (build 457) - by Dester - opdester@freemail.hu
~~~~~~~~~~~~~~~~~~~~~~~~~~~~~~~~~~
-----------------------------------------------------------
Начато: пятница, 20. 02. 2009. - 16:56.48
Найдено файлов: 10
01 -===- E:\torrent\music\Etta Jones - Don't Go To Strangers\01 - Yes Sir, That's My Baby.flac
Извлечение успешно выполнено
Заключение: этот трек - CDDA с вероятностью 100%
Временный файл удалён.
02 -===- E:\torrent\music\Etta Jones - Don't Go To Strangers\02 - Don't Go to Strangers.flac
Извлечение успешно выполнено
Заключение: этот трек - CDDA с вероятностью 100%
Временный файл удалён.
03 -===- E:\torrent\music\Etta Jones - Don't Go To Strangers\03 - I Love Paris.flac
Извлечение успешно выполнено
Заключение: этот трек - CDDA с вероятностью 100%
Временный файл удалён.
04 -===- E:\torrent\music\Etta Jones - Don't Go To Strangers\04 - Fine and Mellow.flac
Извлечение успешно выполнено
Заключение: этот трек - CDDA с вероятностью 100%
Временный файл удалён.
05 -===- E:\torrent\music\Etta Jones - Don't Go To Strangers\05 - Where or When.flac
Извлечение успешно выполнено
Заключение: этот трек - CDDA с вероятностью 100%
Временный файл удалён.
06 -===- E:\torrent\music\Etta Jones - Don't Go To Strangers\06 - If I Had You.flac
Извлечение успешно выполнено
Заключение: этот трек - CDDA с вероятностью 100%
Временный файл удалён.
07 -===- E:\torrent\music\Etta Jones - Don't Go To Strangers\07 - On the Street Where You Live.flac
Извлечение успешно выполнено
Заключение: этот трек - CDDA с вероятностью 100%
Временный файл удалён.
08 -===- E:\torrent\music\Etta Jones - Don't Go To Strangers\08 - Something to Remember You By.flac
Извлечение успешно выполнено
Заключение: этот трек - CDDA с вероятностью 100%
Временный файл удалён.
09 -===- E:\torrent\music\Etta Jones - Don't Go To Strangers\09 - Bye Bye Blackbird.flac
Извлечение успешно выполнено
Заключение: этот трек - CDDA с вероятностью 100%
Временный файл удалён.
10 -===- E:\torrent\music\Etta Jones - Don't Go To Strangers\10 - All the Way.flac
Извлечение успешно выполнено
Заключение: этот трек - CDDA с вероятностью 100%
Временный файл удалён.
Завершено: пятница, 20. 02. 2009. - 17:01.39 (Время операции: 0:04.51)
 
Tau Analyzer
Any questions - support@pro-jazz.com. Есть вопросы - support@pro-jazz.com
06:38
503
Нет комментариев. Ваш будет первым!