Поиск

(Vocal Jazz, Dream Pop, Pop-Rock) Fredrika Stahl - Off to Dance - 2013, FLAC (image+.cue), lossless

(Vocal Jazz, Dream Pop, Pop-Rock) Fredrika Stahl - Off to Dance - 2013, FLAC (image+.cue), lossless
Треклист:
Fredrika Stahl / Off to Dance
Жанр: Vocal Jazz, Dream Pop, Pop-Rock
Страна-производитель диска: France
Год издания: 2013
Издатель (лейбл): RCA
Номер по каталогу: 88765412432
Страна: Sweden
Аудиокодек: FLAC (*.flac)
Тип рипа: image+.cue
Битрейт аудио: lossless
Продолжительность: 00:35:00
Источник (релизер): Собственная коллекция
Наличие сканов в содержимом раздачи: да
Треклист:
1 Willow 4:14
2 Trivial Needs 2:56
3 Off to Dance 3:52
4 Little Muse 3:07
5 We Are Whole 3:12
6 Garspard 1:08
7 Glory 4:36
8 Midday Moon 3:45
9 Trip Me Up 4:29
10 Deep Breath Then Dive 3:41
 
Лог создания рипа
Exact Audio Copy V1.0 beta 3 from 29. August 2011
Отчёт EAC об извлечении, выполненном 23. октября 2013, 23:31
Fredrika Stahl / Off To Dance
Дисковод: PLEXTOR DVDR PX-810SA Adapter: 0 ID: 4
Режим чтения : Достоверность
Использование точного потока : Да
Отключение кэша аудио : Да
Использование указателей C2 : Нет
Коррекция смещения при чтении : 48
Способность читать области Lead-in и Lead-out : Да
Заполнение пропущенных сэмплов тишиной : Да
Удаление блоков с тишиной в начале и конце : Нет
При вычислениях CRC использовались нулевые сэмплы : Да
Интерфейс : Встроенный Win32-интерфейс для Win NT/2000
Выходной формат : Пользовательский кодировщик
Выбранный битрейт : 896 kBit/s
Качество : Высокий
Добавление ID3-тега : Нет
Утилита сжатия : C:\Program Files (x86)\FLAC\flac.exe
Дополнительные параметры : -V -8 -T "Genre=%genre%" -T "Artist=%artist%" -T "Title=%title%" -T "Album=%albumtitle%" -T "Date=%year%" -T "Tracknumber=%tracknr%" -T "Comment=%comment%" %source%
TOC извлечённого CD
Трек | Старт | Длительность | Начальный сектор | Конечный сектор
---------------------------------------------------------------------
1 | 0:45.74 | 4:14.26 | 3449 | 22524
2 | 5:00.25 | 2:55.58 | 22525 | 35707
3 | 7:56.08 | 3:52.24 | 35708 | 53131
4 | 11:48.32 | 3:07.06 | 53132 | 67162
5 | 14:55.38 | 3:12.31 | 67163 | 81593
6 | 18:07.69 | 1:07.49 | 81594 | 86667
7 | 19:15.43 | 4:35.38 | 86668 | 107330
8 | 23:51.06 | 3:44.49 | 107331 | 124179
9 | 27:35.55 | 4:29.12 | 124180 | 144366
10 | 32:04.67 | 3:41.00 | 144367 | 160941
Характеристики диапазона извлечения и сообщения об ошибках
Выбранный диапазон
Имя файла J:\RIPS\Fredrika Stahl - Off To Dance.wav
Пиковый уровень 100.0 %
Скорость извлечения 6.5 X
Качество диапазона 100.0 %
CRC копии B73CC042
Копирование... OK
Ошибок не произошло
AccurateRip: сводка
Трек 1 : извлечено точно (доверие 20) [6091193D] (AR v2)
Трек 2 : извлечено точно (доверие 20) [A3A403DC] (AR v2)
Трек 3 : извлечено точно (доверие 20) [CEA1417F] (AR v2)
Трек 4 : извлечено точно (доверие 20) [473DE01D] (AR v2)
Трек 5 : извлечено точно (доверие 20) [3EDD16DC] (AR v2)
Трек 6 : извлечено точно (доверие 20) [081DBE23] (AR v2)
Трек 7 : извлечено точно (доверие 20) [40FACE4F] (AR v2)
Трек 8 : извлечено точно (доверие 20) [F407023E] (AR v2)
Трек 9 : извлечено точно (доверие 20) [F0C468F6] (AR v2)
Трек 10 : извлечено точно (доверие 20) [6341F91A] (AR v2)
Все треки извлечены точно
Конец отчёта
==== Контрольная сумма отчёта F8A52415C2646FB95015A7127B79E88C777D32D5E429A8BC75611E0DBEF15088 ====
 
Содержание индексной карты (.CUE)
REM GENRE Vocal
REM DATE 2013
REM DISCID 9308340A
REM COMMENT "ExactAudioCopy v1.0b3"
CATALOG 0887654124326
PERFORMER "Fredrika Stahl"
TITLE "Off To Dance"
FILE "Fredrika Stahl - Off To Dance.flac" WAVE
TRACK 01 AUDIO
TITLE "Willow"
PERFORMER "Fredrika Stahl"
ISRC FRZ081200273
INDEX 00 00:00:00
INDEX 01 00:45:74
TRACK 02 AUDIO
TITLE "Trivial Needs"
PERFORMER "Fredrika Stahl"
ISRC FRZ081200275
INDEX 01 05:00:25
TRACK 03 AUDIO
TITLE "Off To Dance"
PERFORMER "Fredrika Stahl"
ISRC FRZ081200276
INDEX 01 07:56:08
TRACK 04 AUDIO
TITLE "Little Muse"
PERFORMER "Fredrika Stahl"
ISRC FRZ081200279
INDEX 00 11:47:32
INDEX 01 11:48:32
TRACK 05 AUDIO
TITLE "We Are Whole"
PERFORMER "Fredrika Stahl"
ISRC FRZ081200280
INDEX 01 14:55:38
TRACK 06 AUDIO
TITLE "Gaspard"
PERFORMER "Fredrika Stahl"
ISRC FRZ081200281
INDEX 01 18:07:69
TRACK 07 AUDIO
TITLE "Glory"
PERFORMER "Fredrika Stahl"
ISRC FRZ081200274
INDEX 01 19:15:43
TRACK 08 AUDIO
TITLE "Midday Moon"
PERFORMER "Fredrika Stahl"
ISRC FRZ081200277
INDEX 01 23:51:06
TRACK 09 AUDIO
TITLE "Trip Me Up"
PERFORMER "Fredrika Stahl"
ISRC FRZ081200278
INDEX 01 27:35:55
TRACK 10 AUDIO
TITLE "Deep Breath Then Dive"
PERFORMER "Fredrika Stahl"
ISRC FRZ081200282
INDEX 01 32:04:67
По всем вопросам пишите личное сообщение пользователю M0p94ok.
11:56
274
Нет комментариев. Ваш будет первым!