Вы используете незарегистрированную версию компонента "Вкладки"!

Поиск

(Vocal Jazz) [CD] Rosemary Clooney - White Christmas (1996) - 2003, FLAC (tracks+.cue), lossless

(Vocal Jazz) [CD] Rosemary Clooney - White Christmas (1996) - 2003, FLAC (tracks+.cue), lossless
Треклист:
Rosemary Clooney - White Christmas (1996) Жанр: Vocal Jazz
Носитель: CD
Год издания: 2003
Издатель (лейбл): Concord Jazz
Номер по каталогу: SACD-1018-6
Аудиокодек: FLAC (*.flac)
Тип рипа: tracks+.cue
Битрейт аудио: lossless
Продолжительность: 55:11
Источник (релизер): What.cd (disorderian)
Наличие сканов в содержимом раздачи: да
Треклист:
01. The Christmas Song (3:50)
02. Let It Snow (3:11)
03. Joy To The World (0:42)
04. I'll Be Home For Christmas (3:31)
05. It's The Most Wonderful Time Of The Year (2:21)
06. Have Yourself A Merry Little Christmas (3:32)
07. Christmas Love Song (3:30)
08. The First Noel (0:50)
09. Winter Wonderland (2:47)
10. Christmas Time Is Here (3:10)
11. Christmas Mem'ries (3:52)
12. Rudolph The Red Nosed Reindeer (1:02)
13. The Spirit Of Christmas (4:32)
14. Santa Claus Is Coming To Town, Hey Kris Kringle (2:40)
15. Count Your Blessings (Instead Of Sheep) (3:24)
16. O Little Town Of Bethlehem (0:58)
17. The Christmas Waltz (2:45)
18. White Christmas (3:34)
19. Silent Night (1:19)
20. Sleep Well, Little Children (2:14)
21. Don't Wait Till The Night Before Christmas (1:26)
 
 
Лог создания рипа
Exact Audio Copy V1.1 from 23. June 2015
EAC extraction logfile from 17. December 2015, 1:32
Rosemary Clooney / White Christmas
Used drive : PIONEER BD-RW BDR-203 Adapter: 1 ID: 0
Read mode : Secure
Utilize accurate stream : Yes
Defeat audio cache : Yes
Make use of C2 pointers : No
Read offset correction : 667
Overread into Lead-In and Lead-Out : No
Fill up missing offset samples with silence : Yes
Delete leading and trailing silent blocks : No
Null samples used in CRC calculations : Yes
Used interface : Native Win32 interface for Win NT & 2000
Gap handling : Appended to previous track
Used output format : User Defined Encoder
Selected bitrate : 896 kBit/s
Quality : High
Add ID3 tag : No
Command line compressor : E:\Program Files (x86)\Exact Audio Copy\Flac\flac.exe
Additional command line options : -8 -V -T "ARTIST=%artist%" -T "TITLE=%title%" -T "ALBUM=%albumtitle%" -T "DATE=%year%" -T "TRACKNUMBER=%tracknr%" -T "TOTALTRACKS=%numtracks%" -T "GENRE=%genre%" -T "ALBUMARTIST=%albumartist%" -T "ALBUM ARTIST=%albumartist%" -T "COMMENT=EAC Secure Mode, Test & Copy, AccurateRip, FLAC -8" %source%
TOC of the extracted CD
Track | Start | Length | Start sector | End sector
---------------------------------------------------------
1 | 0:00.00 | 3:50.00 | 0 | 17249
2 | 3:50.00 | 3:10.40 | 17250 | 31539
3 | 7:00.40 | 0:42.27 | 31540 | 34716
4 | 7:42.67 | 3:31.10 | 34717 | 50551
5 | 11:14.02 | 2:20.73 | 50552 | 61124
6 | 13:35.00 | 3:31.57 | 61125 | 77006
7 | 17:06.57 | 3:29.50 | 77007 | 92731
8 | 20:36.32 | 0:50.00 | 92732 | 96481
9 | 21:26.32 | 2:46.68 | 96482 | 108999
10 | 24:13.25 | 3:10.37 | 109000 | 123286
11 | 27:23.62 | 3:51.40 | 123287 | 140651
12 | 31:15.27 | 1:02.03 | 140652 | 145304
13 | 32:17.30 | 4:32.30 | 145305 | 165734
14 | 36:49.60 | 2:39.55 | 165735 | 177714
15 | 39:29.40 | 3:24.35 | 177715 | 193049
16 | 42:54.00 | 0:58.10 | 193050 | 197409
17 | 43:52.10 | 2:44.70 | 197410 | 209779
18 | 46:37.05 | 3:34.17 | 209780 | 225846
19 | 50:11.22 | 1:19.30 | 225847 | 231801
20 | 51:30.52 | 2:14.08 | 231802 | 241859
21 | 53:44.60 | 1:25.70 | 241860 | 248304
Track 1
Filename E:\PT\Rosemary Clooney - White Christmas (1996) [FLAC]\01 - The Christmas Song.wav
Pre-gap length 0:00:02.00
Peak level 90.1 %
Extraction speed 4.4 X
Track quality 100.0 %
Test CRC C9715FDA
Copy CRC C9715FDA
Accurately ripped (confidence 7) [1CA4D3EC] (AR v2)
Copy OK
Track 2
Filename E:\PT\Rosemary Clooney - White Christmas (1996) [FLAC]\02 - Let It Snow.wav
Pre-gap length 0:00:01.48
Peak level 91.6 %
Extraction speed 4.0 X
Track quality 99.9 %
Test CRC 5704F85E
Copy CRC 5704F85E
Accurately ripped (confidence 8) [F5383526] (AR v2)
Copy OK
Track 3
Filename E:\PT\Rosemary Clooney - White Christmas (1996) [FLAC]\03 - Joy to the World.wav
Pre-gap length 0:00:00.55
Peak level 89.0 %
Extraction speed 3.0 X
Track quality 100.0 %
Test CRC AC5B8454
Copy CRC AC5B8454
Accurately ripped (confidence 8) [350AD49F] (AR v2)
Copy OK
Track 4
Filename E:\PT\Rosemary Clooney - White Christmas (1996) [FLAC]\04 - I'll Be Home for Christmas.wav
Pre-gap length 0:00:01.15
Peak level 90.1 %
Extraction speed 4.5 X
Track quality 99.9 %
Test CRC 54EEAD73
Copy CRC 54EEAD73
Accurately ripped (confidence 8) [ACCCB04C] (AR v2)
Copy OK
Track 5
Filename E:\PT\Rosemary Clooney - White Christmas (1996) [FLAC]\05 - It's the Most Wonderful Time of the Year.wav
Pre-gap length 0:00:02.07
Peak level 90.7 %
Extraction speed 5.0 X
Track quality 100.0 %
Test CRC 7F5A3A60
Copy CRC 7F5A3A60
Accurately ripped (confidence 8) [3027223F] (AR v2)
Copy OK
Track 6
Filename E:\PT\Rosemary Clooney - White Christmas (1996) [FLAC]\06 - Have Yourself a Merry Little Christmas.wav
Pre-gap length 0:00:00.63
Peak level 78.1 %
Extraction speed 5.7 X
Track quality 100.0 %
Test CRC 162BF35F
Copy CRC 162BF35F
Accurately ripped (confidence 7) [5C0605DC] (AR v2)
Copy OK
Track 7
Filename E:\PT\Rosemary Clooney - White Christmas (1996) [FLAC]\07 - Christmas Love Song.wav
Pre-gap length 0:00:01.35
Peak level 89.9 %
Extraction speed 5.9 X
Track quality 100.0 %
Test CRC BD35C180
Copy CRC BD35C180
Accurately ripped (confidence 8) [31664619] (AR v2)
Copy OK
Track 8
Filename E:\PT\Rosemary Clooney - White Christmas (1996) [FLAC]\08 - The First Noel.wav
Pre-gap length 0:00:01.12
Peak level 90.4 %
Extraction speed 4.0 X
Track quality 100.0 %
Test CRC 2FB2D4D2
Copy CRC 2FB2D4D2
Accurately ripped (confidence 8) [56AF34F1] (AR v2)
Copy OK
Track 9
Filename E:\PT\Rosemary Clooney - White Christmas (1996) [FLAC]\09 - Winter Wonderland.wav
Pre-gap length 0:00:01.62
Peak level 91.5 %
Extraction speed 5.9 X
Track quality 100.0 %
Test CRC 0652D950
Copy CRC 0652D950
Accurately ripped (confidence 8) [01DFDF72] (AR v2)
Copy OK
Track 10
Filename E:\PT\Rosemary Clooney - White Christmas (1996) [FLAC]\10 - Christmas Time Is Here.wav
Pre-gap length 0:00:02.18
Peak level 87.9 %
Extraction speed 6.3 X
Track quality 100.0 %
Test CRC A3FF7F79
Copy CRC A3FF7F79
Accurately ripped (confidence 8) [6936FC84] (AR v2)
Copy OK
Track 11
Filename E:\PT\Rosemary Clooney - White Christmas (1996) [FLAC]\11 - Christmas Mem'ries.wav
Pre-gap length 0:00:01.17
Peak level 90.9 %
Extraction speed 6.7 X
Track quality 100.0 %
Test CRC A4122524
Copy CRC A4122524
Accurately ripped (confidence 7) [A2656B48] (AR v2)
Copy OK
Track 12
Filename E:\PT\Rosemary Clooney - White Christmas (1996) [FLAC]\12 - Rudolph the Red Nosed Reindeer.wav
Pre-gap length 0:00:00.57
Peak level 90.2 %
Extraction speed 3.6 X
Track quality 99.8 %
Test CRC E15F4379
Copy CRC E15F4379
Accurately ripped (confidence 8) [FDBEF7D4] (AR v2)
Copy OK
Track 13
Filename E:\PT\Rosemary Clooney - White Christmas (1996) [FLAC]\13 - The Spirit of Christmas.wav
Pre-gap length 0:00:00.43
Peak level 91.4 %
Extraction speed 7.2 X
Track quality 100.0 %
Test CRC 07CB40E3
Copy CRC 07CB40E3
Accurately ripped (confidence 7) [2EDBCBBE] (AR v2)
Copy OK
Track 14
Filename E:\PT\Rosemary Clooney - White Christmas (1996) [FLAC]\14 - Santa Claus Is Coming to Town, Hey Kris Kringle.wav
Pre-gap length 0:00:00.70
Peak level 91.1 %
Extraction speed 6.8 X
Track quality 100.0 %
Test CRC 9E448C37
Copy CRC 9E448C37
Accurately ripped (confidence 8) [E7692A48] (AR v2)
Copy OK
Track 15
Filename E:\PT\Rosemary Clooney - White Christmas (1996) [FLAC]\15 - Count Your Blessings (Instead of Sheep).wav
Pre-gap length 0:00:01.28
Peak level 90.7 %
Extraction speed 7.3 X
Track quality 100.0 %
Test CRC 0D3B6186
Copy CRC 0D3B6186
Accurately ripped (confidence 8) [4D3E7F05] (AR v2)
Copy OK
Track 16
Filename E:\PT\Rosemary Clooney - White Christmas (1996) [FLAC]\16 - O Little Town of Bethlehem.wav
Pre-gap length 0:00:01.05
Peak level 73.2 %
Extraction speed 5.1 X
Track quality 100.0 %
Test CRC 09804F93
Copy CRC 09804F93
Accurately ripped (confidence 8) [DCCB73C8] (AR v2)
Copy OK
Track 17
Filename E:\PT\Rosemary Clooney - White Christmas (1996) [FLAC]\17 - The Christmas Waltz.wav
Pre-gap length 0:00:01.43
Peak level 91.0 %
Extraction speed 7.2 X
Track quality 100.0 %
Test CRC 486F4A77
Copy CRC 486F4A77
Accurately ripped (confidence 7) [3BE17155] (AR v2)
Copy OK
Track 18
Filename E:\PT\Rosemary Clooney - White Christmas (1996) [FLAC]\18 - White Christmas.wav
Pre-gap length 0:00:01.05
Peak level 89.8 %
Extraction speed 7.6 X
Track quality 100.0 %
Test CRC 16C9C5C6
Copy CRC 16C9C5C6
Accurately ripped (confidence 8) [7666C8FD] (AR v2)
Copy OK
Track 19
Filename E:\PT\Rosemary Clooney - White Christmas (1996) [FLAC]\19 - Silent Night.wav
Pre-gap length 0:00:01.37
Peak level 76.9 %
Extraction speed 6.2 X
Track quality 100.0 %
Test CRC 21694CB2
Copy CRC 21694CB2
Accurately ripped (confidence 8) [092D49B3] (AR v2)
Copy OK
Track 20
Filename E:\PT\Rosemary Clooney - White Christmas (1996) [FLAC]\20 - Sleep Well, Little Children.wav
Pre-gap length 0:00:01.00
Peak level 89.1 %
Extraction speed 5.9 X
Track quality 99.9 %
Test CRC 1B93F9DD
Copy CRC 1B93F9DD
Accurately ripped (confidence 8) [AC0BEEE3] (AR v2)
Copy OK
Track 21
Filename E:\PT\Rosemary Clooney - White Christmas (1996) [FLAC]\21 - Don't Wait Till the Night Before Christmas.wav
Pre-gap length 0:00:01.40
Peak level 89.7 %
Extraction speed 6.5 X
Track quality 100.0 %
Test CRC BE8056AD
Copy CRC BE8056AD
Accurately ripped (confidence 8) [45855778] (AR v2)
Copy OK
All tracks accurately ripped
No errors occurred
End of status report
---- AcoustID Plugin V1.2.0
Total fingerprints: 21
---- CUETools DB Plugin V2.1.6
[CTDB TOCID: AlqOJqgoZPOSbQ1d4dtTs3KQ6hk-] found
Submit result: AlqOJqgoZPOSbQ1d4dtTs3KQ6hk- has been confirmed
Track | CTDB Status
1 | (8/8) Accurately ripped
2 | (8/8) Accurately ripped
3 | (8/8) Accurately ripped
4 | (8/8) Accurately ripped
5 | (8/8) Accurately ripped
6 | (8/8) Accurately ripped
7 | (8/8) Accurately ripped
8 | (8/8) Accurately ripped
9 | (8/8) Accurately ripped
10 | (8/8) Accurately ripped
11 | (8/8) Accurately ripped
12 | (8/8) Accurately ripped
13 | (8/8) Accurately ripped
14 | (8/8) Accurately ripped
15 | (8/8) Accurately ripped
16 | (8/8) Accurately ripped
17 | (8/8) Accurately ripped
18 | (8/8) Accurately ripped
19 | (8/8) Accurately ripped
20 | (8/8) Accurately ripped
21 | (8/8) Accurately ripped
==== Log checksum 98CAD0E9DDBB5BEFDB39BB6A3251187D831C270DDBBAE557AD7B88AD54FCDD09 ====
 
Содержание индексной карты (.CUE)
REM GENRE Christmas
REM DATE 1996
REM DISCID 2E0CEE15
REM COMMENT "ExactAudioCopy v1.1"
PERFORMER "Rosemary Clooney"
TITLE "White Christmas"
FILE "01 - The Christmas Song.wav" WAVE
TRACK 01 AUDIO
TITLE "The Christmas Song"
PERFORMER "Rosemary Clooney"
INDEX 01 00:00:00
TRACK 02 AUDIO
TITLE "Let It Snow"
PERFORMER "Rosemary Clooney"
INDEX 00 03:48:27
FILE "02 - Let It Snow.wav" WAVE
INDEX 01 00:00:00
TRACK 03 AUDIO
TITLE "Joy To The World"
PERFORMER "Rosemary Clooney"
INDEX 00 03:09:60
FILE "03 - Joy To The World.wav" WAVE
INDEX 01 00:00:00
TRACK 04 AUDIO
TITLE "I'll Be Home For Christmas"
PERFORMER "Rosemary Clooney"
INDEX 00 00:41:12
FILE "04 - I'll Be Home For Christmas.wav" WAVE
INDEX 01 00:00:00
TRACK 05 AUDIO
TITLE "It's The Most Wonderful Time Of The Year"
PERFORMER "Rosemary Clooney"
INDEX 00 03:29:03
FILE "05 - It's The Most Wonderful Time Of The Year.wav" WAVE
INDEX 01 00:00:00
TRACK 06 AUDIO
TITLE "Have Yourself A Merry Little Christmas"
PERFORMER "Rosemary Clooney"
INDEX 00 02:20:10
FILE "06 - Have Yourself A Merry Little Christmas.wav" WAVE
INDEX 01 00:00:00
TRACK 07 AUDIO
TITLE "Christmas Love Song"
PERFORMER "Rosemary Clooney"
INDEX 00 03:30:22
FILE "07 - Christmas Love Song.wav" WAVE
INDEX 01 00:00:00
TRACK 08 AUDIO
TITLE "The First Noel"
PERFORMER "Rosemary Clooney"
INDEX 00 03:28:38
FILE "08 - The First Noel.wav" WAVE
INDEX 01 00:00:00
TRACK 09 AUDIO
TITLE "Winter Wonderland"
PERFORMER "Rosemary Clooney"
INDEX 00 00:48:13
FILE "09 - Winter Wonderland.wav" WAVE
INDEX 01 00:00:00
TRACK 10 AUDIO
TITLE "Christmas Time Is Here"
PERFORMER "Rosemary Clooney"
INDEX 00 02:44:50
FILE "10 - Christmas Time Is Here.wav" WAVE
INDEX 01 00:00:00
TRACK 11 AUDIO
TITLE "Christmas Mem'ries"
PERFORMER "Rosemary Clooney"
INDEX 00 03:09:20
FILE "11 - Christmas Mem'ries.wav" WAVE
INDEX 01 00:00:00
TRACK 12 AUDIO
TITLE "Rudolph The Red Nosed Reindeer"
PERFORMER "Rosemary Clooney"
INDEX 00 03:50:58
FILE "12 - Rudolph The Red Nosed Reindeer.wav" WAVE
INDEX 01 00:00:00
TRACK 13 AUDIO
TITLE "The Spirit Of Christmas"
PERFORMER "Rosemary Clooney"
INDEX 00 01:01:35
FILE "13 - The Spirit Of Christmas.wav" WAVE
INDEX 01 00:00:00
TRACK 14 AUDIO
TITLE "Santa Claus Is Coming To Town, Hey Kris Kringle"
PERFORMER "Rosemary Clooney"
INDEX 00 04:31:35
FILE "14 - Santa Claus Is Coming To Town, Hey Kris Kringle.wav" WAVE
INDEX 01 00:00:00
TRACK 15 AUDIO
TITLE "Count Your Blessings (Instead Of Sheep)"
PERFORMER "Rosemary Clooney"
INDEX 00 02:38:27
FILE "15 - Count Your Blessings (Instead Of Sheep).wav" WAVE
INDEX 01 00:00:00
TRACK 16 AUDIO
TITLE "O Little Town Of Bethlehem"
PERFORMER "Rosemary Clooney"
INDEX 00 03:23:30
FILE "16 - O Little Town Of Bethlehem.wav" WAVE
INDEX 01 00:00:00
TRACK 17 AUDIO
TITLE "The Christmas Waltz"
PERFORMER "Rosemary Clooney"
INDEX 00 00:56:42
FILE "17 - The Christmas Waltz.wav" WAVE
INDEX 01 00:00:00
TRACK 18 AUDIO
TITLE "White Christmas"
PERFORMER "Rosemary Clooney"
INDEX 00 02:43:65
FILE "18 - White Christmas.wav" WAVE
INDEX 01 00:00:00
TRACK 19 AUDIO
TITLE "Silent Night"
PERFORMER "Rosemary Clooney"
INDEX 00 03:32:55
FILE "19 - Silent Night.wav" WAVE
INDEX 01 00:00:00
TRACK 20 AUDIO
TITLE "Sleep Well, Little Children"
PERFORMER "Rosemary Clooney"
INDEX 00 01:18:30
FILE "20 - Sleep Well, Little Children.wav" WAVE
INDEX 01 00:00:00
TRACK 21 AUDIO
TITLE "Don't Wait Till The Night Before Christmas"
PERFORMER "Rosemary Clooney"
INDEX 00 02:12:43
FILE "21 - Don't Wait Till The Night Before Christmas.wav" WAVE
INDEX 01 00:00:00
Any questions - support@pro-jazz.com. Есть вопросы - support@pro-jazz.com
00:01
280
Нет комментариев. Ваш будет первым!