Вы используете незарегистрированную версию компонента "Вкладки"!

Поиск

(Vocal Jazz) [CD] Rosemary Clooney - Thanks For Nothing - 2002, FLAC (image+.cue), lossless

(Vocal Jazz) [CD] Rosemary Clooney - Thanks For Nothing - 2002, FLAC (image+.cue), lossless
Треклист:
Rosemary Clooney - Thanks For Nothing
Жанр: Vocal Jazz
Носитель: CD
Страна-производитель диска: USA
Год издания диска: 2002
Издатель (лейбл): Wounded Bird
Номер по каталогу: WOU 6108
Страна исполнителя (группы): USA
Аудиокодек: FLAC (*.flac)
Тип рипа: image+.cue
Битрейт аудио: lossless
Продолжительность: 34:07.24
Источник (релизер): свой диск
Наличие сканов в содержимом раздачи: да (600dpi, *.jpg)
Треклист:
01. Hello Faithless [0:02:19.09]
02. The Rules Of The Road [0:02:34.72]
03. Just One Of Those Things [0:02:32.14]
04. All Alone [0:02:27.73]
05. Black Coffee [0:03:43.73]
06. A Good Man Is Hard To Find [0:02:28.28]
07. Baby, The Ball Is Over [0:02:11.72]
08. The Man That Got Away [0:04:16.74]
09. I Gotta Right To Sing The Blues [0:03:16.32]
10. Miss Otis Regrets [0:03:03.40]
11. Thanks For Nothing (At All) [0:03:06.22]
12. Careless Love [0:02:07.12]
 
Лог создания рипа
Exact Audio Copy V1.0 beta 3 from 29. August 2011
Отчёт EAC об извлечении, выполненном 8. января 2013, 15:47
Rosemary Clooney / Thanks For Nothing
Дисковод: SONY CD-RW CRX230ED Adapter: 0 ID: 1
Режим чтения : Достоверность
Использование точного потока : Да
Отключение кэша аудио : Да
Использование указателей C2 : Нет
Коррекция смещения при чтении : 6
Способность читать области Lead-in и Lead-out : Нет
Заполнение пропущенных сэмплов тишиной : Да
Удаление блоков с тишиной в начале и конце : Нет
При вычислениях CRC использовались нулевые сэмплы : Да
Интерфейс : Установленный внешний ASPI-интерфейс
Выходной формат : Внутренние WAV-операции
Формат сэмплов : 44.100 Гц; 16 бит; стерео
TOC извлечённого CD
Трек | Старт | Длительность | Начальный сектор | Конечный сектор
---------------------------------------------------------------------
1 | 0:00.00 | 2:19.07 | 0 | 10431
2 | 2:19.07 | 2:34.54 | 10432 | 22035
3 | 4:53.61 | 2:32.11 | 22036 | 33446
4 | 7:25.72 | 2:27.55 | 33447 | 44526
5 | 9:53.52 | 3:43.55 | 44527 | 61306
6 | 13:37.32 | 2:28.21 | 61307 | 72427
7 | 16:05.53 | 2:11.54 | 72428 | 82306
8 | 18:17.32 | 4:16.56 | 82307 | 101562
9 | 22:34.13 | 3:16.24 | 101563 | 116286
10 | 25:50.37 | 3:03.30 | 116287 | 130041
11 | 28:53.67 | 3:06.17 | 130042 | 144008
12 | 32:00.09 | 2:07.09 | 144009 | 153542
Характеристики диапазона извлечения и сообщения об ошибках
Выбранный диапазон
Имя файла E:\MusicCD\Torrent\Rosemary Clooney - Thanks For Nothing\Rosemary Clooney - Thanks For Nothing.wav
Пиковый уровень 99.0 %
Скорость извлечения 7.2 X
Качество диапазона 100.0 %
CRC теста F4E4D9AB
CRC копии F4E4D9AB
Копирование... OK
Ошибок не произошло
AccurateRip: сводка
Трек 1 : извлечено точно (доверие 3) [3B6D9980] (AR v1)
Трек 2 : извлечено точно (доверие 3) [9D6A298E] (AR v1)
Трек 3 : извлечено точно (доверие 3) [DB93A109] (AR v1)
Трек 4 : извлечено точно (доверие 3) [695E554E] (AR v1)
Трек 5 : извлечено точно (доверие 3) [BDEE58F4] (AR v1)
Трек 6 : извлечено точно (доверие 3) [D9E13B66] (AR v1)
Трек 7 : извлечено точно (доверие 3) [68F27BCC] (AR v1)
Трек 8 : извлечено точно (доверие 3) [BBE0CEA0] (AR v1)
Трек 9 : извлечено точно (доверие 3) [802D369B] (AR v1)
Трек 10 : извлечено точно (доверие 3) [24F0098E] (AR v1)
Трек 11 : извлечено точно (доверие 3) [5304A477] (AR v1)
Трек 12 : извлечено точно (доверие 3) [63A82C49] (AR v1)
Все треки извлечены точно
Конец отчёта
==== Контрольная сумма отчёта 6469F7630AC9BD83CCB5C555321E871DDE985F53D80E068B85FBD981EB9F9C9A ====
 
Содержание индексной карты (.CUE)
REM GENRE Vocal
REM DATE 2002
REM DISCID AF07FF0C
REM COMMENT "ExactAudioCopy v1.0b3"
PERFORMER "Rosemary Clooney"
TITLE "Thanks For Nothing"
FILE "Rosemary Clooney - Thanks For Nothing.flac" WAVE
TRACK 01 AUDIO
TITLE "Hello Faithless"
PERFORMER "Rosemary Clooney"
INDEX 01 00:00:00
TRACK 02 AUDIO
TITLE "The Rules Of The Road"
PERFORMER "Rosemary Clooney"
INDEX 01 02:19:07
TRACK 03 AUDIO
TITLE "Just One Of Those Things"
PERFORMER "Rosemary Clooney"
INDEX 01 04:53:61
TRACK 04 AUDIO
TITLE "All Alone"
PERFORMER "Rosemary Clooney"
INDEX 01 07:25:72
TRACK 05 AUDIO
TITLE "Black Coffee"
PERFORMER "Rosemary Clooney"
INDEX 01 09:53:52
TRACK 06 AUDIO
TITLE "A Good Man Is Hard To Find"
PERFORMER "Rosemary Clooney"
INDEX 01 13:37:32
TRACK 07 AUDIO
TITLE "Baby, The Ball Is Over"
PERFORMER "Rosemary Clooney"
INDEX 01 16:05:53
TRACK 08 AUDIO
TITLE "The Man That Got Away"
PERFORMER "Rosemary Clooney"
INDEX 01 18:17:32
TRACK 09 AUDIO
TITLE "I Gotta Right To Sing The Blues"
PERFORMER "Rosemary Clooney"
INDEX 01 22:34:13
TRACK 10 AUDIO
TITLE "Miss Otis Regrets"
PERFORMER "Rosemary Clooney"
INDEX 01 25:50:37
TRACK 11 AUDIO
TITLE "Thanks For Nothing (At All)"
PERFORMER "Rosemary Clooney"
INDEX 01 28:53:67
TRACK 12 AUDIO
TITLE "Careless Love"
PERFORMER "Rosemary Clooney"
INDEX 01 32:00:09
 
Tau
 
Matrix
Any questions - support@pro-jazz.com. Есть вопросы - support@pro-jazz.com
14:48
268
Нет комментариев. Ваш будет первым!