Вы используете незарегистрированную версию компонента "Вкладки"!

Поиск

(Vocal Jazz) [CD] Laura Fygi - Watch What Happens: When Laura Fygi Meets Michel Legrand - 1997, FLAC (tracks+.cue), lossless

(Vocal Jazz) [CD] Laura Fygi - Watch What Happens: When Laura Fygi Meets Michel Legrand - 1997, FLAC (tracks+.cue), lossless
Треклист:
Laura Fygi - Watch What Happens: When Laura Fygi Meets Michel Legrand Жанр: Vocal Jazz
Носитель: CD
Год издания: 1997
Издатель (лейбл): Mercury
Номер по каталогу: PHCR-1508
Аудиокодек: FLAC (*.flac)
Тип рипа: tracks+.cue
Битрейт аудио: lossless
Продолжительность: 58:59
Источник (релизер): What.cd (minimuma)
Наличие сканов в содержимом раздачи: да
Треклист:
01. Where's The Love (2:23)
02. The First Time (4:14)
03. You Had To Be There (3:38)
04. The Summer Knows (4:38)
05. Watch What Happens (3:25)
06. Et Si Demain (3:10)
07. The Windmills Of Your Mind (4:06)
08. I Will Wait For You (2:49)
09. Once Upon A Summertime (3:41)
10. What Are You Doing For The Rest Of Your Life? (3:48)
11. How Do You Keep The Music Playing? (3:35)
12. Summer Me, Winter Me (4:00)
13. The Way He Makes Me Feel (4:16)
14. Ask Yourself Why (3:54)
15. You Must Believe In Spring (3:54)
16. Rachel (3:29)

 
 
Лог создания рипа
Exact Audio Copy V1.0 beta 3 from 29. August 2011
EAC extraction logfile from 17. March 2012, 21:52
Laura Fygi / Watch What Happens: When Laura Fygi Meets Michel Legrand
Used drive : MATSHITADVD-RAM UJ880AS Adapter: 0 ID: 1
Read mode : Secure
Utilize accurate stream : Yes
Defeat audio cache : Yes
Make use of C2 pointers : No
Read offset correction : 102
Overread into Lead-In and Lead-Out : No
Fill up missing offset samples with silence : Yes
Delete leading and trailing silent blocks : No
Null samples used in CRC calculations : Yes
Used interface : Native Win32 interface for Win NT & 2000
Gap handling : Appended to previous track
Used output format : User Defined Encoder
Selected bitrate : 1024 kBit/s
Quality : High
Add ID3 tag : No
Command line compressor : C:\Program Files\Exact Audio Copy\FLAC\FLAC.EXE
Additional command line options : -8 -V -T "ARTIST=%artist%" -T "TITLE=%title%" -T "ALBUM=%albumtitle%" -T "DATE=%year%" -T "TRACKNUMBER=%tracknr%" -T "GENRE=%genre%" -T "COMMENT=%comment%" -T "BAND=%albuminterpret%" -T "COMPOSER=%composer%" %haslyrics%--tag-from-file=LYRICS="%lyricsfile%"%haslyrics% -T "DISCNUMBER=%cdnumber%" -T "TOTALDISCS=%totalcds%" -T "TOTALTRACKS=%numtracks%" %hascover%--picture="%coverfile%"%hascover% %source% -o %dest%
TOC of the extracted CD
Track | Start | Length | Start sector | End sector
---------------------------------------------------------
1 | 0:00.37 | 2:22.70 | 37 | 10756
2 | 2:23.32 | 4:13.62 | 10757 | 29793
3 | 6:37.19 | 3:37.50 | 29794 | 46118
4 | 10:14.69 | 4:37.53 | 46119 | 66946
5 | 14:52.47 | 3:24.72 | 66947 | 82318
6 | 18:17.44 | 3:10.08 | 82319 | 96576
7 | 21:27.52 | 4:06.12 | 96577 | 115038
8 | 25:33.64 | 2:49.08 | 115039 | 127721
9 | 28:22.72 | 3:40.45 | 127722 | 144266
10 | 32:03.42 | 3:48.37 | 144267 | 161403
11 | 35:52.04 | 3:35.00 | 161404 | 177528
12 | 39:27.04 | 4:00.03 | 177529 | 195531
13 | 43:27.07 | 4:15.70 | 195532 | 214726
14 | 47:43.02 | 3:53.57 | 214727 | 232258
15 | 51:36.59 | 3:53.45 | 232259 | 249778
16 | 55:30.29 | 3:28.65 | 249779 | 265443
Track 1
Filename E:\barca008\Laura Fygi - Watch What Happens-When Laura Fygi Meets Michel Legrand\01 - Where's The Love.wav
Pre-gap length 0:00:02.37
Peak level 95.0 %
Extraction speed 1.0 X
Track quality 100.0 %
Test CRC A8B4E664
Copy CRC A8B4E664
Cannot be verified as accurate (confidence 3) [45BD2D53], AccurateRip returned [C1ADAFB1] (AR v2)
Copy OK
Track 2
Filename E:\barca008\Laura Fygi - Watch What Happens-When Laura Fygi Meets Michel Legrand\02 - The First Time.wav
Pre-gap length 0:00:01.59
Peak level 84.3 %
Extraction speed 1.2 X
Track quality 100.0 %
Test CRC 9DBE19CA
Copy CRC 9DBE19CA
Cannot be verified as accurate (confidence 3) [375C2D18], AccurateRip returned [20F50117] (AR v2)
Copy OK
Track 3
Filename E:\barca008\Laura Fygi - Watch What Happens-When Laura Fygi Meets Michel Legrand\03 - You Had To Be There.wav
Pre-gap length 0:00:03.09
Peak level 90.7 %
Extraction speed 1.3 X
Track quality 100.0 %
Test CRC CF28FF04
Copy CRC CF28FF04
Cannot be verified as accurate (confidence 3) [A11AE8CF], AccurateRip returned [851F618D] (AR v2)
Copy OK
Track 4
Filename E:\barca008\Laura Fygi - Watch What Happens-When Laura Fygi Meets Michel Legrand\04 - The Summer Knows.wav
Pre-gap length 0:00:04.04
Peak level 88.5 %
Extraction speed 1.5 X
Track quality 100.0 %
Test CRC 9997C8A9
Copy CRC 9997C8A9
Cannot be verified as accurate (confidence 3) [CBBEC71C], AccurateRip returned [36A7F804] (AR v2)
Copy OK
Track 5
Filename E:\barca008\Laura Fygi - Watch What Happens-When Laura Fygi Meets Michel Legrand\05 - Watch What Happens.wav
Peak level 94.9 %
Extraction speed 1.5 X
Track quality 100.0 %
Test CRC 8FD631A5
Copy CRC 8FD631A5
Cannot be verified as accurate (confidence 3) [710EBB70], AccurateRip returned [4408F865] (AR v2)
Copy OK
Track 6
Filename E:\barca008\Laura Fygi - Watch What Happens-When Laura Fygi Meets Michel Legrand\06 - Et Si Demain.wav
Pre-gap length 0:00:02.66
Peak level 92.1 %
Extraction speed 1.6 X
Track quality 100.0 %
Test CRC 6B6D4E9C
Copy CRC 6B6D4E9C
Cannot be verified as accurate (confidence 3) [C15B0124], AccurateRip returned [A3F74F6E] (AR v2)
Copy OK
Track 7
Filename E:\barca008\Laura Fygi - Watch What Happens-When Laura Fygi Meets Michel Legrand\07 - The Windmills Of Your Mind.wav
Pre-gap length 0:00:03.37
Peak level 82.7 %
Extraction speed 1.7 X
Track quality 100.0 %
Test CRC 9CBB4C56
Copy CRC 9CBB4C56
Cannot be verified as accurate (confidence 3) [F1C66FBF], AccurateRip returned [BACBC367] (AR v2)
Copy OK
Track 8
Filename E:\barca008\Laura Fygi - Watch What Happens-When Laura Fygi Meets Michel Legrand\08 - I Will Wait For You.wav
Pre-gap length 0:00:02.61
Peak level 92.5 %
Extraction speed 1.7 X
Track quality 100.0 %
Test CRC 0C422CCC
Copy CRC 0C422CCC
Cannot be verified as accurate (confidence 3) [09FE7A2F], AccurateRip returned [F1FB7B01] (AR v2)
Copy OK
Track 9
Filename E:\barca008\Laura Fygi - Watch What Happens-When Laura Fygi Meets Michel Legrand\09 - Once Upon A Summertime.wav
Pre-gap length 0:00:03.27
Peak level 82.7 %
Extraction speed 1.8 X
Track quality 100.0 %
Test CRC BDD2884F
Copy CRC BDD2884F
Cannot be verified as accurate (confidence 3) [8695A192], AccurateRip returned [58E6FC7F] (AR v2)
Copy OK
Track 10
Filename E:\barca008\Laura Fygi - Watch What Happens-When Laura Fygi Meets Michel Legrand\10 - What Are You Doing For The Rest Of Your Life.wav
Pre-gap length 0:00:04.64
Peak level 89.0 %
Extraction speed 1.9 X
Track quality 100.0 %
Test CRC C058C67E
Copy CRC C058C67E
Cannot be verified as accurate (confidence 3) [4FF1FC16], AccurateRip returned [35676FFE] (AR v2)
Copy OK
Track 11
Filename E:\barca008\Laura Fygi - Watch What Happens-When Laura Fygi Meets Michel Legrand\11 - How Do You Keep The Music Playing.wav
Pre-gap length 0:00:02.56
Peak level 88.5 %
Extraction speed 2.0 X
Track quality 100.0 %
Test CRC F4FAB429
Copy CRC F4FAB429
Cannot be verified as accurate (confidence 3) [22F87AD5], AccurateRip returned [E1ED34E3] (AR v2)
Copy OK
Track 12
Filename E:\barca008\Laura Fygi - Watch What Happens-When Laura Fygi Meets Michel Legrand\12 - Summer Me, Winter Me.wav
Pre-gap length 0:00:03.49
Peak level 90.5 %
Extraction speed 1.8 X
Track quality 99.9 %
Test CRC 696911BE
Copy CRC 696911BE
Cannot be verified as accurate (confidence 3) [3C90EE3C], AccurateRip returned [2AE914F5] (AR v2)
Copy OK
Track 13
Filename E:\barca008\Laura Fygi - Watch What Happens-When Laura Fygi Meets Michel Legrand\13 - The Way He Makes Me Feel.wav
Pre-gap length 0:00:03.29
Peak level 78.1 %
Extraction speed 1.9 X
Track quality 99.9 %
Test CRC 2615B01D
Copy CRC 2615B01D
Cannot be verified as accurate (confidence 3) [1CDB103A], AccurateRip returned [80B30469] (AR v2)
Copy OK
Track 14
Filename E:\barca008\Laura Fygi - Watch What Happens-When Laura Fygi Meets Michel Legrand\14 - Ask Yourself Why.wav
Pre-gap length 0:00:02.22
Peak level 70.1 %
Extraction speed 2.2 X
Track quality 100.0 %
Test CRC 3473995A
Copy CRC 3473995A
Cannot be verified as accurate (confidence 3) [4E6AC04D], AccurateRip returned [28716C0F] (AR v2)
Copy OK
Track 15
Filename E:\barca008\Laura Fygi - Watch What Happens-When Laura Fygi Meets Michel Legrand\15 - You Must Believe In Spring.wav
Pre-gap length 0:00:03.51
Peak level 84.9 %
Extraction speed 2.2 X
Track quality 100.0 %
Test CRC 741BFFF8
Copy CRC 741BFFF8
Cannot be verified as accurate (confidence 3) [6DA4ADA9], AccurateRip returned [B5DE2A10] (AR v2)
Copy OK
Track 16
Filename E:\barca008\Laura Fygi - Watch What Happens-When Laura Fygi Meets Michel Legrand\16 - Rachel.wav
Pre-gap length 0:00:03.54
Peak level 82.6 %
Extraction speed 2.2 X
Track quality 100.0 %
Test CRC 3D3FCBF5
Copy CRC 3D3FCBF5
Cannot be verified as accurate (confidence 3) [8A56A6DF], AccurateRip returned [AAE6F400] (AR v2)
Copy OK
No tracks could be verified as accurate
You may have a different pressing from the one(s) in the database
No errors occurred
End of status report
==== Log checksum 157809453974FBEA998FC585A00D17AC4F9F4A2B78323CC6E6CCC82A99A3D01B ====
 
Содержание индексной карты (.CUE)
REM GENRE "Easy Listening"
REM DATE 1997
REM DISCID FA0DD310
REM COMMENT "ExactAudioCopy v1.0b3"
CATALOG 4988011352256
PERFORMER "Laura Fygi"
TITLE "Watch What Happens: When Laura Fygi Meets Michel Legrand"
FILE "01 - Where's The Love.wav" WAVE
TRACK 01 AUDIO
TITLE "Where's The Love"
PERFORMER "Laura Fygi"
ISRC NLA309700001
PREGAP 00:00:37
INDEX 01 00:00:00
TRACK 02 AUDIO
TITLE "The First Time"
PERFORMER "Laura Fygi"
ISRC NLA309700002
INDEX 00 02:21:11
FILE "02 - The First Time.wav" WAVE
INDEX 01 00:00:00
TRACK 03 AUDIO
TITLE "You Had To Be There"
PERFORMER "Laura Fygi"
ISRC NLA309700003
INDEX 00 04:10:53
FILE "03 - You Had To Be There.wav" WAVE
INDEX 01 00:00:00
TRACK 04 AUDIO
TITLE "The Summer Knows"
PERFORMER "Laura Fygi"
ISRC NLA309700004
INDEX 00 03:33:46
FILE "04 - The Summer Knows.wav" WAVE
INDEX 01 00:00:00
FILE "05 - Watch What Happens.wav" WAVE
TRACK 05 AUDIO
TITLE "Watch What Happens"
PERFORMER "Laura Fygi"
ISRC NLA309700005
INDEX 01 00:00:00
TRACK 06 AUDIO
TITLE "Et Si Demain"
PERFORMER "Laura Fygi"
ISRC NLA309700006
INDEX 00 03:22:06
FILE "06 - Et Si Demain.wav" WAVE
INDEX 01 00:00:00
TRACK 07 AUDIO
TITLE "The Windmills Of Your Mind"
PERFORMER "Laura Fygi"
ISRC NLA309700007
INDEX 00 03:06:46
FILE "07 - The Windmills Of Your Mind.wav" WAVE
INDEX 01 00:00:00
TRACK 08 AUDIO
TITLE "I Will Wait For You"
PERFORMER "Laura Fygi"
ISRC NLA309700008
INDEX 00 04:03:26
FILE "08 - I Will Wait For You.wav" WAVE
INDEX 01 00:00:00
TRACK 09 AUDIO
TITLE "Once Upon A Summertime"
PERFORMER "Laura Fygi"
ISRC NLA309700009
INDEX 00 02:45:56
FILE "09 - Once Upon A Summertime.wav" WAVE
INDEX 01 00:00:00
TRACK 10 AUDIO
TITLE "What Are You Doing For The Rest Of Your Life?"
PERFORMER "Laura Fygi"
ISRC NLA309700010
INDEX 00 03:35:56
FILE "10 - What Are You Doing For The Rest Of Your Life.wav" WAVE
INDEX 01 00:00:00
TRACK 11 AUDIO
TITLE "How Do You Keep The Music Playing?"
PERFORMER "Laura Fygi"
ISRC NLA309700011
INDEX 00 03:45:56
FILE "11 - How Do You Keep The Music Playing.wav" WAVE
INDEX 01 00:00:00
TRACK 12 AUDIO
TITLE "Summer Me, Winter Me"
PERFORMER "Laura Fygi"
ISRC NLA309700012
INDEX 00 03:31:26
FILE "12 - Summer Me, Winter Me.wav" WAVE
INDEX 01 00:00:00
TRACK 13 AUDIO
TITLE "The Way He Makes Me Feel"
PERFORMER "Laura Fygi"
ISRC NLA309700013
INDEX 00 03:56:49
FILE "13 - The Way He Makes Me Feel.wav" WAVE
INDEX 01 00:00:00
TRACK 14 AUDIO
TITLE "Ask Yourself Why"
PERFORMER "Laura Fygi"
ISRC NLA309700014
INDEX 00 04:13:48
FILE "14 - Ask Yourself Why.wav" WAVE
INDEX 01 00:00:00
TRACK 15 AUDIO
TITLE "You Must Believe In Spring"
PERFORMER "Laura Fygi"
ISRC NLA309700015
INDEX 00 03:50:06
FILE "15 - You Must Believe In Spring.wav" WAVE
INDEX 01 00:00:00
TRACK 16 AUDIO
TITLE "Rachel"
PERFORMER "Laura Fygi"
ISRC NLA309700016
INDEX 00 03:49:66
FILE "16 - Rachel.wav" WAVE
INDEX 01 00:00:00
Any questions - support@pro-jazz.com. Есть вопросы - support@pro-jazz.com
17:35
303
Нет комментариев. Ваш будет первым!