Поиск

(Vocal Jazz) [CD] Katie Melua - Spider's Web (Promo Copy) - 2006, FLAC (image+.cue), lossless

(Vocal Jazz) [CD] Katie Melua - Spider's Web (Promo Copy) - 2006, FLAC (image+.cue), lossless
Треклист:
Katie Melua / Spider's Web (Promo Copy)
Жанр: Vocal Jazz
Носитель: CD
Страна-производитель диска (релиза): UK
Год издания: 2006
Издатель (лейбл): Dramatico
Номер по каталогу: DRAMCDS0017 LC13350
Страна исполнителя (группы): UK
Аудиокодек: FLAC (*.flac)
Тип рипа: image+.cue
Битрейт аудио: lossless
Продолжительность: 00:10:18
Источник (релизер): Собственный рип
Наличие сканов в содержимом раздачи: да
Треклист:
01. Spider's Web (Single Version) [0:03:57.70]
02. Spider's Web (Album Remix) [0:03:56.12]
03. Cry Baby Cry [0:02:24.08]
 
Лог создания рипа
Exact Audio Copy V1.0 beta 3 from 29. August 2011
Отчёт EAC об извлечении, выполненном 5. апреля 2018, 23:14
Katie Melua / Spider's Web
Дисковод: PLEXTOR DVDR PX-755A Adapter: 1 ID: 1
Режим чтения : Достоверность
Использование точного потока : Да
Отключение кэша аудио : Да
Использование указателей C2 : Нет
Коррекция смещения при чтении : 30
Способность читать области Lead-in и Lead-out : Нет
Заполнение пропущенных сэмплов тишиной : Да
Удаление блоков с тишиной в начале и конце : Нет
При вычислениях CRC использовались нулевые сэмплы : Да
Интерфейс : Установленный внешний ASPI-интерфейс
Выходной формат : Пользовательский кодировщик
Выбранный битрейт : 1024 kBit/s
Качество : Высокий
Добавление ID3-тега : Нет
Утилита сжатия : C:\Program Files (x86)\Exact Audio Copy\Flac\flac.exe
Дополнительные параметры : -V -8 -T "Date=%year%" -T "Genre=%genre%" %source%
TOC извлечённого CD
Трек | Старт | Длительность | Начальный сектор | Конечный сектор
---------------------------------------------------------------------
1 | 0:00.00 | 3:57.70 | 0 | 17844
2 | 3:57.70 | 3:56.12 | 17845 | 35556
3 | 7:54.07 | 2:24.08 | 35557 | 46364
Характеристики диапазона извлечения и сообщения об ошибках
Выбранный диапазон
Имя файла E:\РАЗДАЧА\Katie Melua - Spider's Web (DRAMATICO)\Katie Melua - Spider's Web.wav
Пиковый уровень 98.8 %
Скорость извлечения 5.7 X
Качество диапазона 99.9 %
CRC теста 658314BD
CRC копии 658314BD
Копирование... OK
Ошибок не произошло
AccurateRip: сводка
Трек 1 : извлечено точно (доверие 2) [1462C529] (AR v1)
Трек 2 : извлечено точно (доверие 1) [D48D0808] (AR v1)
Трек 3 : извлечено точно (доверие 1) [58EDE1D7] (AR v1)
Все треки извлечены точно
Конец отчёта
==== Контрольная сумма отчёта 9AA173A095726459714ABC214C7DE1E9F98797E0FCE41E6AFB4B90EED074C7AA ====
Скачивание доступно после регистрации!!
Приватный:
Нет (DHT включён)
Размер:
83.58 Мб (87,639,420 байт) » файлов: 8
Участники:
0 раздают, 0 качают (0 участников всего)
Внешние участники:
5 раздают, 1 качают (6 участников всего) [ Обновить ]
07:04
10
Нет комментариев. Ваш будет первым!